[更早] [欧美] [剧情] [BD-1080P] 逍遥骑士 Easy.Rider.1969.REMASTERED.1080p.BluRay.x264.DTS-HD.MA.5.1-SWTYBLZ 14.16GB

uump4 9天前 59

帖子完整标题:逍遥骑士 Easy.Rider.1969.REMASTERED.1080p.BluRay.x264.DTS-HD.MA.5.1-SWTYBLZ 14.16GB


悠悠MP4_MP4电影下载_逍遥骑士 Easy.Rider.1969.REMASTERED.1080p.BluRay.x264.DTS-HD.MA.5.1-SWTYBLZ 14.16GB

◎译  名 逍遥骑士
◎片  名 Easy Rider
◎年  代 1969
◎产  地 美国
◎类  别 剧情
◎语  言 英语 / 西班牙语
◎上映日期 1969-05-08
◎IMDb评分  7.3/10 from 92753 users
◎IMDb链接  https://www.imdb.com/title/tt0064276
◎豆瓣评分 8.4/10 from 13486 users
◎豆瓣链接 https://movie.douban.com/subject/1297646/
◎片  长 95 分钟
◎导  演 Dennis Hopper
◎编  剧 Peter Fonda / Dennis Hopper / Terry Southern
◎主  演 Peter Fonda
       Dennis Hopper
       Jack Nicholson


◎标  签 美国 | 公路电影 | 公路 | 公路片 | 美国电影 | 摇滚 | 逍遥骑士 | DennisHopper

◎简  介  

  比利(丹尼斯·霍珀 Dennis Hopper 饰)和怀特(彼得·方达 Peter Fonda 饰)用一次毒品交易的钱骑着他们的机车上路了,他们的目的地,是新奥尔良的狂欢节。在路上,他们经过了离群索居的波西米亚人群落,短暂逗留的数天里目睹了他们自由放浪但也贫穷困苦的生活。在德克萨斯州,他们仅因为行为举止诡异就被警察关进了监狱,在那里,他们遇见了律师汉森(杰克·尼科尔森 Jack Nicholson 饰),汉森帮助他们逃离了牢狱之灾,他们怂恿汉森同他们一起上路。抵挡不住内心的骚动,汉森同意了。三人来到一个保守的小镇,在那里受尽了居民的白眼。不受欢迎的三人只得露宿荒野,夜里,当地的居民乔装袭击了他们,汉森被打死。比利和怀特虽然震惊,但这一切都没能阻止他们前进的脚步。到达目的地的两人并没有感到喜悦,有的只是无尽的空虚,沮丧的两人打道回府,但令人意外的是,一个卡车司机和他的双杆猎枪使得他们的行程截然而止。
  这是影史上最伟大的公路电影,也是为数众多的公路电影的鼻祖。

◎获奖情况  

  第42届奥斯卡金像奖(1970)
  最佳男配角(提名) 杰克·尼科尔森
  最佳原创剧本(提名) 丹尼斯·霍珀 / 特里·索泽恩 / 彼得·方达

  第22届戛纳电影节(1969)
  主竞赛单元 金棕榈奖(提名) 丹尼斯·霍珀
  最佳首作 丹尼斯·霍珀

Video
ID                                       : 1
Format                                   : AVC
Format/Info                              : Advanced Video Codec
Format profile                           : [email protected]
Format settings                          : CABAC / 4 Ref Frames
Format settings, CABAC                   : Yes
Format settings, Reference frames        : 4 frames
Codec ID                                 : V_MPEG4/ISO/AVC
Duration                                 : 1 h 35 min
Bit rate                                 : 19.1 Mb/s
Width                                    : 1 920 pixels
Height                                   : 1 038 pixels
Display aspect ratio                     : 1.85:1
Frame rate mode                          : Constant
Frame rate                               : 23.976 (24000/1001) FPS
Color space                              : YUV
Chroma subsampling                       : 4:2:0
Bit depth                                : 8 bits
Scan type                                : Progressive
Bits/(Pixel*Frame)                       : 0.400
Stream size                              : 12.8 GiB (90%)
Title                                    : Easy.Rider.1969.REMASTERED.1080p.BluRay.x264.DTS-HD.MA.5.1-SWTYBLZ
Writing library                          : x264 core 157 r2935 545de2f
Encoding settings                        : cabac=1 / ref=4 / deblock=1:-1:-1 / analyse=0x3:0x133 / me=umh / subme=10 / psy=1 / psy_rd=1.00:0.15 / mixed_ref=1 / me_range=48 / chroma_me=1 / trellis=2 / 8x8dct=1 / cqm=0 / deadzone=21,11 / fast_pskip=1 / chroma_qp_offset=-3 / threads=32 / lookahead_threads=5 / sliced_threads=0 / nr=0 / decimate=0 / interlaced=0 / bluray_compat=0 / constrained_intra=0 / bframes=8 / b_pyramid=2 / b_adapt=2 / b_bias=0 / direct=3 / weightb=1 / open_gop=0 / weightp=2 / keyint=250 / keyint_min=23 / scenecut=40 / intra_refresh=0 / rc_lookahead=60 / rc=crf / mbtree=1 / crf=21.0 / qcomp=0.60 / qpmin=0 / qpmax=69 / qpstep=4 / ip_ratio=1.40 / aq=1:1.00
Language                                 : English
Default                                  : Yes
Forced                                   : No

Audio
ID                                       : 2
Format                                   : DTS XLL
Format/Info                              : Digital Theater Systems
Commercial name                          : DTS-HD Master Audio
Codec ID                                 : A_DTS
Duration                                 : 1 h 35 min
Bit rate mode                            : Variable
Bit rate                                 : 1 884 kb/s
Channel(s)                               : 6 channels
Channel layout                           : C L R Ls Rs LFE
Sampling rate                            : 48.0 kHz
Frame rate                               : 93.750 FPS (512 SPF)
Bit depth                                : 16 bits
Compression mode                         : Lossless
Stream size                              : 1.26 GiB (9%)
Title                                    : Easy.Rider.1969.REMASTERED.1080p.BluRay.x264.DTS-HD.MA.5.1-SWTYBLZ
Language                                 : English
Default                                  : Yes
Forced                                   : No

Text #1
ID                                       : 3
Format                                   : UTF-8
Codec ID                                 : S_TEXT/UTF8
Codec ID/Info                            : UTF-8 Plain Text
Duration                                 : 1 h 29 min
Bit rate                                 : 49 b/s
Count of elements                        : 904
Stream size                              : 32.3 KiB (0%)
Title                                    : English-SRT
Language                                 : English
Default                                  : Yes
Forced                                   : No

Text #2
ID                                       : 4
Format                                   : UTF-8
Codec ID                                 : S_TEXT/UTF8
Codec ID/Info                            : UTF-8 Plain Text
Duration                                 : 1 h 35 min
Bit rate                                 : 50 b/s
Count of elements                        : 1002
Stream size                              : 35.1 KiB (0%)
Title                                    : English-SDH-SRT
Language                                 : English
Default                                  : No
Forced                                   : No

Text #3
ID                                       : 5
Format                                   : PGS
Muxing mode                              : zlib
Codec ID                                 : S_HDMV/PGS
Codec ID/Info                            : Picture based subtitle format used on BDs/HD-DVDs
Duration                                 : 1 h 23 min
Bit rate                                 : 21.3 kb/s
Count of elements                        : 1390
Stream size                              : 12.7 MiB (0%)
Title                                    : English-PGS
Language                                 : English
Default                                  : No
Forced                                   : No

Text #4
ID                                       : 6
Format                                   : PGS
Muxing mode                              : zlib
Codec ID                                 : S_HDMV/PGS
Codec ID/Info                            : Picture based subtitle format used on BDs/HD-DVDs
Duration                                 : 1 h 23 min
Bit rate                                 : 21.3 kb/s
Count of elements                        : 1390
Stream size                              : 12.7 MiB (0%)
Title                                    : English-PGS
Language                                 : English
Default                                  : No
Forced                                   : No

Text #5
ID                                       : 7
Format                                   : PGS
Muxing mode                              : zlib
Codec ID                                 : S_HDMV/PGS
Codec ID/Info                            : Picture based subtitle format used on BDs/HD-DVDs
Duration                                 : 1 h 35 min
Bit rate                                 : 27.9 kb/s
Count of elements                        : 2004
Stream size                              : 19.0 MiB (0%)
Title                                    : English-SDH-PGS
Language                                 : English
Default                                  : No
Forced                                   : No

Text #6
ID                                       : 8
Format                                   : PGS
Muxing mode                              : zlib
Codec ID                                 : S_HDMV/PGS
Codec ID/Info                            : Picture based subtitle format used on BDs/HD-DVDs
Duration                                 : 1 h 23 min
Bit rate                                 : 11.0 kb/s
Count of elements                        : 1370
Stream size                              : 6.57 MiB (0%)
Title                                    : Arabic-PGS
Language                                 : Arabic
Default                                  : No
Forced                                   : No

Text #7
ID                                       : 9
Format                                   : PGS
Muxing mode                              : zlib
Codec ID                                 : S_HDMV/PGS
Codec ID/Info                            : Picture based subtitle format used on BDs/HD-DVDs
Duration                                 : 1 h 32 min
Bit rate                                 : 13.5 kb/s
Count of elements                        : 910
Stream size                              : 8.93 MiB (0%)
Title                                    : Chinese-PGS
Language                                 : Chinese
Default                                  : No
Forced                                   : No

Text #8
ID                                       : 10
Format                                   : PGS
Muxing mode                              : zlib
Codec ID                                 : S_HDMV/PGS
Codec ID/Info                            : Picture based subtitle format used on BDs/HD-DVDs
Duration                                 : 1 h 32 min
Bit rate                                 : 15.3 kb/s
Count of elements                        : 1410
Stream size                              : 10.1 MiB (0%)
Title                                    : Chinese-PGS
Language                                 : Chinese
Default                                  : No
Forced                                   : No

Text #9
ID                                       : 11
Format                                   : PGS
Muxing mode                              : zlib
Codec ID                                 : S_HDMV/PGS
Codec ID/Info                            : Picture based subtitle format used on BDs/HD-DVDs
Duration                                 : 1 h 23 min
Bit rate                                 : 17.8 kb/s
Count of elements                        : 1334
Stream size                              : 10.6 MiB (0%)
Title                                    : Croatian-PGS
Language                                 : Croatian
Default                                  : No
Forced                                   : No

Text #10
ID                                       : 12
Format                                   : PGS
Muxing mode                              : zlib
Codec ID                                 : S_HDMV/PGS
Codec ID/Info                            : Picture based subtitle format used on BDs/HD-DVDs
Duration                                 : 1 h 23 min
Bit rate                                 : 17.2 kb/s
Count of elements                        : 1344
Stream size                              : 10.3 MiB (0%)
Title                                    : Czech-PGS
Language                                 : Czech
Default                                  : No
Forced                                   : No

Text #11
ID                                       : 13
Format                                   : PGS
Muxing mode                              : zlib
Codec ID                                 : S_HDMV/PGS
Codec ID/Info                            : Picture based subtitle format used on BDs/HD-DVDs
Duration                                 : 1 h 23 min
Bit rate                                 : 18.4 kb/s
Count of elements                        : 1026
Stream size                              : 11.0 MiB (0%)
Title                                    : Danish-PGS
Language                                 : Danish
Default                                  : No
Forced                                   : No

Text #12
ID                                       : 14
Format                                   : PGS
Muxing mode                              : zlib
Codec ID                                 : S_HDMV/PGS
Codec ID/Info                            : Picture based subtitle format used on BDs/HD-DVDs
Duration                                 : 1 h 23 min
Bit rate                                 : 19.2 kb/s
Count of elements                        : 1334
Stream size                              : 11.5 MiB (0%)
Title                                    : Dutch-PGS
Language                                 : Dutch
Default                                  : No
Forced                                   : No

Text #13
ID                                       : 15
Format                                   : PGS
Muxing mode                              : zlib
Codec ID                                 : S_HDMV/PGS
Codec ID/Info                            : Picture based subtitle format used on BDs/HD-DVDs
Duration                                 : 1 h 25 min
Bit rate                                 : 18.1 kb/s
Count of elements                        : 1056
Stream size                              : 11.1 MiB (0%)
Title                                    : Finnish-PGS
Language                                 : Finnish
Default                                  : No
Forced                                   : No

Text #14
ID                                       : 16
Format                                   : PGS
Muxing mode                              : zlib
Codec ID                                 : S_HDMV/PGS
Codec ID/Info                            : Picture based subtitle format used on BDs/HD-DVDs
Duration                                 : 1 h 27 min
Bit rate                                 : 18.1 kb/s
Count of elements                        : 1364
Stream size                              : 11.3 MiB (0%)
Title                                    : French-PGS
Language                                 : French
Default                                  : No
Forced                                   : No

Text #15
ID                                       : 17
Format                                   : PGS
Muxing mode                              : zlib
Codec ID                                 : S_HDMV/PGS
Codec ID/Info                            : Picture based subtitle format used on BDs/HD-DVDs
Duration                                 : 1 h 23 min
Bit rate                                 : 22.4 kb/s
Count of elements                        : 1348
Stream size                              : 13.4 MiB (0%)
Title                                    : German-PGS
Language                                 : German
Default                                  : No
Forced                                   : No

Text #16
ID                                       : 18
Format                                   : PGS
Muxing mode                              : zlib
Codec ID                                 : S_HDMV/PGS
Codec ID/Info                            : Picture based subtitle format used on BDs/HD-DVDs
Duration                                 : 1 h 33 min
Bit rate                                 : 15.5 kb/s
Count of elements                        : 1104
Stream size                              : 10.4 MiB (0%)
Title                                    : Greek-PGS
Language                                 : Greek
Default                                  : No
Forced                                   : No

Text #17
ID                                       : 19
Format                                   : PGS
Muxing mode                              : zlib
Codec ID                                 : S_HDMV/PGS
Codec ID/Info                            : Picture based subtitle format used on BDs/HD-DVDs
Duration                                 : 1 h 25 min
Bit rate                                 : 18.8 kb/s
Count of elements                        : 1352
Stream size                              : 11.5 MiB (0%)
Title                                    : Hungarian-PGS
Language                                 : Hungarian
Default                                  : No
Forced                                   : No

Text #18
ID                                       : 20
Format                                   : PGS
Muxing mode                              : zlib
Codec ID                                 : S_HDMV/PGS
Codec ID/Info                            : Picture based subtitle format used on BDs/HD-DVDs
Duration                                 : 1 h 23 min
Bit rate                                 : 20.2 kb/s
Count of elements                        : 1344
Stream size                              : 12.1 MiB (0%)
Title                                    : Icelandic-PGS
Language                                 : Icelandic
Default                                  : No
Forced                                   : No

Text #19
ID                                       : 21
Format                                   : PGS
Muxing mode                              : zlib
Codec ID                                 : S_HDMV/PGS
Codec ID/Info                            : Picture based subtitle format used on BDs/HD-DVDs
Duration                                 : 1 h 23 min
Bit rate                                 : 21.2 kb/s
Count of elements                        : 1342
Stream size                              : 12.7 MiB (0%)
Title                                    : Italian-PGS
Language                                 : Italian
Default                                  : No
Forced                                   : No

Text #20
ID                                       : 22
Format                                   : PGS
Muxing mode                              : zlib
Codec ID                                 : S_HDMV/PGS
Codec ID/Info                            : Picture based subtitle format used on BDs/HD-DVDs
Duration                                 : 1 h 33 min
Bit rate                                 : 12.0 kb/s
Count of elements                        : 1114
Stream size                              : 7.99 MiB (0%)
Title                                    : Japanese-PGS
Language                                 : Japanese
Default                                  : No
Forced                                   : No

Text #21
ID                                       : 23
Format                                   : PGS
Muxing mode                              : zlib
Codec ID                                 : S_HDMV/PGS
Codec ID/Info                            : Picture based subtitle format used on BDs/HD-DVDs
Duration                                 : 1 h 32 min
Bit rate                                 : 11.7 kb/s
Count of elements                        : 1392
Stream size                              : 7.81 MiB (0%)
Title                                    : Korean-PGS
Language                                 : Korean
Default                                  : No
Forced                                   : No

Text #22
ID                                       : 24
Format                                   : PGS
Muxing mode                              : zlib
Codec ID                                 : S_HDMV/PGS
Codec ID/Info                            : Picture based subtitle format used on BDs/HD-DVDs
Duration                                 : 1 h 32 min
Bit rate                                 : 16.0 kb/s
Count of elements                        : 1112
Stream size                              : 10.6 MiB (0%)
Title                                    : Norwegian-PGS
Language                                 : Norwegian
Default                                  : No
Forced                                   : No

Text #23
ID                                       : 25
Format                                   : PGS
Muxing mode                              : zlib
Codec ID                                 : S_HDMV/PGS
Codec ID/Info                            : Picture based subtitle format used on BDs/HD-DVDs
Duration                                 : 1 h 23 min
Bit rate                                 : 16.2 kb/s
Count of elements                        : 1316
Stream size                              : 9.67 MiB (0%)
Title                                    : Polish-PGS
Language                                 : Polish
Default                                  : No
Forced                                   : No

Text #24
ID                                       : 26
Format                                   : PGS
Muxing mode                              : zlib
Codec ID                                 : S_HDMV/PGS
Codec ID/Info                            : Picture based subtitle format used on BDs/HD-DVDs
Duration                                 : 1 h 25 min
Bit rate                                 : 19.0 kb/s
Count of elements                        : 1138
Stream size                              : 11.6 MiB (0%)
Title                                    : Portuguese-PGS
Language                                 : Portuguese
Default                                  : No
Forced                                   : No

Text #25
ID                                       : 27
Format                                   : PGS
Muxing mode                              : zlib
Codec ID                                 : S_HDMV/PGS
Codec ID/Info                            : Picture based subtitle format used on BDs/HD-DVDs
Duration                                 : 1 h 23 min
Bit rate                                 : 17.2 kb/s
Count of elements                        : 1344
Stream size                              : 10.3 MiB (0%)
Title                                    : Portuguese-PGS
Language                                 : Portuguese
Default                                  : No
Forced                                   : No

Text #26
ID                                       : 28
Format                                   : PGS
Muxing mode                              : zlib
Codec ID                                 : S_HDMV/PGS
Codec ID/Info                            : Picture based subtitle format used on BDs/HD-DVDs
Duration                                 : 1 h 34 min
Bit rate                                 : 16.2 kb/s
Count of elements                        : 1396
Stream size                              : 11.0 MiB (0%)
Title                                    : Slovak-PGS
Language                                 : Slovak
Default                                  : No
Forced                                   : No

Text #27
ID                                       : 29
Format                                   : PGS
Muxing mode                              : zlib
Codec ID                                 : S_HDMV/PGS
Codec ID/Info                            : Picture based subtitle format used on BDs/HD-DVDs
Duration                                 : 1 h 23 min
Bit rate                                 : 16.0 kb/s
Count of elements                        : 1334
Stream size                              : 9.57 MiB (0%)
Title                                    : Slovenian-PGS
Language                                 : Slovenian
Default                                  : No
Forced                                   : No

Text #28
ID                                       : 30
Format                                   : PGS
Muxing mode                              : zlib
Codec ID                                 : S_HDMV/PGS
Codec ID/Info                            : Picture based subtitle format used on BDs/HD-DVDs
Duration                                 : 1 h 25 min
Bit rate                                 : 18.6 kb/s
Count of elements                        : 1338
Stream size                              : 11.4 MiB (0%)
Title                                    : Spanish-PGS
Language                                 : Spanish
Default                                  : No
Forced                                   : No

Text #29
ID                                       : 31
Format                                   : PGS
Muxing mode                              : zlib
Codec ID                                 : S_HDMV/PGS
Codec ID/Info                            : Picture based subtitle format used on BDs/HD-DVDs
Duration                                 : 1 h 25 min
Bit rate                                 : 21.7 kb/s
Count of elements                        : 1390
Stream size                              : 13.2 MiB (0%)
Title                                    : Spanish-PGS
Language                                 : Spanish
Default                                  : No
Forced                                   : No

Text #30
ID                                       : 32
Format                                   : PGS
Muxing mode                              : zlib
Codec ID                                 : S_HDMV/PGS
Codec ID/Info                            : Picture based subtitle format used on BDs/HD-DVDs
Duration                                 : 1 h 25 min
Bit rate                                 : 17.9 kb/s
Count of elements                        : 1092
Stream size                              : 10.9 MiB (0%)
Title                                    : Swedish-PGS
Language                                 : Swedish
Default                                  : No
Forced                                   : No

Text #31
ID                                       : 33
Format                                   : PGS
Muxing mode                              : zlib
Codec ID                                 : S_HDMV/PGS
Codec ID/Info                            : Picture based subtitle format used on BDs/HD-DVDs
Duration                                 : 1 h 34 min
Bit rate                                 : 14.4 kb/s
Count of elements                        : 942
Stream size                              : 9.73 MiB (0%)
Title                                    : Thai-PGS
Language                                 : Thai
Default                                  : No
Forced                                   : No

Text #32
ID                                       : 34
Format                                   : PGS
Muxing mode                              : zlib
Codec ID                                 : S_HDMV/PGS
Codec ID/Info                            : Picture based subtitle format used on BDs/HD-DVDs
Duration                                 : 1 h 25 min
Bit rate                                 : 18.6 kb/s
Count of elements                        : 1350
Stream size                              : 11.4 MiB (0%)
Title                                    : Turkish-PGS
Language                                 : Turkish
Default                                  : No
Forced                                   : No

Menu
00:00:00.000                             : en:Chapter 01
00:10:11.402                             : en:Chapter 02
00:16:05.589                             : en:Chapter 03
00:19:42.848                             : en:Chapter 04
00:26:48.898                             : en:Chapter 05
00:31:40.565                             : en:Chapter 06
00:35:52.650                             : en:Chapter 07
00:43:05.040                             : en:Chapter 08
00:50:08.672                             : en:Chapter 09
00:54:22.217                             : en:Chapter 10
01:01:59.674                             : en:Chapter 11
01:09:34.545                             : en:Chapter 12
01:14:23.459                             : en:Chapter 13
01:20:17.604                             : en:Chapter 14
01:28:41.816                             : en:Chapter 15
01:32:03.351                             : en:Chapter 16


悠悠MP4_MP4电影下载_逍遥骑士 Easy.Rider.1969.REMASTERED.1080p.BluRay.x264.DTS-HD.MA.5.1-SWTYBLZ 14.16GB悠悠MP4_MP4电影下载_逍遥骑士 Easy.Rider.1969.REMASTERED.1080p.BluRay.x264.DTS-HD.MA.5.1-SWTYBLZ 14.16GB悠悠MP4_MP4电影下载_逍遥骑士 Easy.Rider.1969.REMASTERED.1080p.BluRay.x264.DTS-HD.MA.5.1-SWTYBLZ 14.16GB


提示:如迅雷下载提示"任务出错"、"因版权无法下载",请尝试【迅雷5】
上传的附件:
最新回复 (0)
返回
本站所有资源均收集自互联网,没有提供影片资源存储, 也未参与录制、上传,若本站收录的资源无意侵犯了您的权益, 请联系邮箱:gogoimgs#gmail.com(#=@)