[2019] [欧美] [惊悚] [BD-1080P] 狂热 The.Fanatic.2019.1080p.BluRay.x264-ROVERS 5.47GB

uump4 10天前 81

帖子完整标题:狂热 The.Fanatic.2019.1080p.BluRay.x264-ROVERS 5.47GB


悠悠MP4_MP4电影下载_狂热 The.Fanatic.2019.1080p.BluRay.x264-ROVERS 5.47GB

◎译  名 狂热 / Moose / 狂热粉丝 / 穆斯
◎片  名 The Fanatic
◎年  代 2019
◎产  地 美国
◎类  别 惊悚
◎语  言 英语
◎上映日期 2019-08-30(美国)
◎IMDb评分  4.7/10 from 127 users
◎IMDb链接  http://www.imdb.com/title/tt7869070
◎豆瓣评分 0/10 from 0 users
◎豆瓣链接 https://movie.douban.com/subject/30163233/
◎片  长 88分钟
◎导  演 弗里德·德斯特 Fred Durst
◎编  剧 弗里德·德斯特 Fred Durst / Dave Bekerman
◎主  演 约翰·特拉沃尔塔 John Travolta
       戴文·萨瓦 Devon Sawa
       雅各布·格罗德尼克 Jacob Grodnik
       詹姆斯·帕克顿 James Paxton
       乔什·里奇曼 Josh Richman
       杰西卡·乌波拉佳 Jessica Uberuaga
       杰夫·蔡斯 Jeff Chase
       小路易斯·达·席尔瓦 Luis Da Silva Jr.
       多米尼克·塞尔瓦托 Dominic Salvatore
       Ana Golja
       Marta González Rodin
       Martin Pe?a
       Kenneth Farmer
       Elle Matarazzo
       Alex Ellis
       Theresa Ireland
       Denny Mendez


◎标  签 2019 | 美国 | 惊悚 | 人性 | 约翰·特拉沃尔塔 | Limpbizkit | 詹姆斯·帕克斯顿 | 老大导的片

◎简  介  

  约翰·特拉沃尔塔主演的惊悚新片[穆斯](Moose,暂译)开机拍摄。导演兼“软饼干”乐队主唱弗里德·德斯特自编自导,影片改编自他多年前经历的真实事件。特拉沃尔塔在片中饰演一名狂热粉丝,他对偶像(戴文·萨瓦饰)的迷恋几乎摧毁了对方的生活。

Video
ID                                       : 1
Format                                   : AVC
Format/Info                              : Advanced Video Codec
Format profile                           : [email protected]
Format settings                          : CABAC / 5 Ref Frames
Format settings, CABAC                   : Yes
Format settings, Reference frames        : 5 frames
Codec ID                                 : V_MPEG4/ISO/AVC
Duration                                 : 1 h 28 min
Bit rate                                 : 8 342 kb/s
Width                                    : 1 920 pixels
Height                                   : 800 pixels
Display aspect ratio                     : 2.40:1
Frame rate mode                          : Constant
Frame rate                               : 23.976 (24000/1001) FPS
Color space                              : YUV
Chroma subsampling                       : 4:2:0
Bit depth                                : 8 bits
Scan type                                : Progressive
Bits/(Pixel*Frame)                       : 0.227
Stream size                              : 5.18 GiB (95%)
Writing library                          : x264 core 158 r2988 7817004
Encoding settings                        : cabac=1 / ref=5 / deblock=1:-3:-3 / analyse=0x3:0x113 / me=umh / subme=8 / psy=1 / psy_rd=1.00:0.00 / mixed_ref=1 / me_range=16 / chroma_me=1 / trellis=1 / 8x8dct=1 / cqm=0 / deadzone=21,11 / fast_pskip=1 / chroma_qp_offset=-2 / threads=25 / lookahead_threads=4 / sliced_threads=0 / nr=0 / decimate=1 / interlaced=0 / bluray_compat=0 / constrained_intra=0 / bframes=3 / b_pyramid=2 / b_adapt=1 / b_bias=0 / direct=3 / weightb=1 / open_gop=0 / weightp=2 / keyint=250 / keyint_min=23 / scenecut=40 / intra_refresh=0 / rc_lookahead=50 / rc=2pass / mbtree=1 / bitrate=8342 / ratetol=1.0 / qcomp=0.60 / qpmin=0 / qpmax=69 / qpstep=4 / cplxblur=20.0 / qblur=0.5 / ip_ratio=1.40 / aq=1:1.00
Language                                 : English
Default                                  : Yes
Forced                                   : No

Audio
ID                                       : 2
Format                                   : AC-3
Format/Info                              : Audio Coding 3
Commercial name                          : Dolby Digital
Codec ID                                 : A_AC3
Duration                                 : 1 h 28 min
Bit rate mode                            : Constant
Bit rate                                 : 448 kb/s
Channel(s)                               : 6 channels
Channel layout                           : L R C LFE Ls Rs
Sampling rate                            : 48.0 kHz
Frame rate                               : 31.250 FPS (1536 SPF)
Bit depth                                : 16 bits
Compression mode                         : Lossy
Stream size                              : 285 MiB (5%)
Language                                 : English
Service kind                             : Complete Main
Default                                  : Yes
Forced                                   : No


悠悠MP4_MP4电影下载_狂热 The.Fanatic.2019.1080p.BluRay.x264-ROVERS 5.47GB


提示:如迅雷下载提示"任务出错"、"因版权无法下载",请尝试【迅雷5】
上传的附件:
最新回复 (0)
返回
本站所有资源均收集自互联网,没有提供影片资源存储, 也未参与录制、上传,若本站收录的资源无意侵犯了您的权益, 请联系邮箱:gogoimgs#gmail.com(#=@)