[2019] [其他] [喜剧] [BD-720P] 摩比小子大电影 Playmobil.The.Movie.2019.720p.BluRay.x264-EiDER 2.65GB

uump4 10天前 45

帖子完整标题:摩比小子大电影 Playmobil.The.Movie.2019.720p.BluRay.x264-EiDER 2.65GB


悠悠MP4_MP4电影下载_摩比小子大电影 Playmobil.The.Movie.2019.720p.BluRay.x264-EiDER 2.65GB

◎译  名 摩比小子大电影 / Playmobil: Robbers, Thieves & Rebels / 摩比世界 / 百乐宝大电影
◎片  名 Playmobil: the Movie
◎年  代 2019
◎产  地 法国 / 德国
◎类  别 喜剧 / 动画 / 奇幻 / 冒险
◎语  言 英语
◎上映日期 2019-08-07(法国) / 2019-08-15(德国)
◎IMDb评分  4.6/10 from 904 users
◎IMDb链接  https://www.imdb.com/title/tt4199898
◎豆瓣评分 0/10 from 0 users
◎豆瓣链接 https://movie.douban.com/subject/26263447/
◎导  演 Lino DiSalvo
◎编  剧 Lino DiSalvo / Blaise Hemingway / Greg Erb / Jason Oremland
◎主  演 安雅·泰勒-乔伊 Anya Taylor-Joy
       丹尼尔·雷德克里夫 Daniel Radcliffe
       基南·汤普森 Kenan Thompson
       加布里埃尔·贝特曼 Gabriel Bateman
       吉姆·加菲根 Jim Gaffigan
       亚当·兰伯特 Adam Lambert
       本·迪斯金 Ben Diskin
       凯伦·斯特拉斯曼 Karen Strassman
       梅根·崔娜 Meghan Trainor
       柯克·桑顿 Kirk Thornton
       伊恩·詹姆斯·科里特 Ian James Corlett
       迪诺·安德拉德 Dino Andrade
       安德鲁·皮菲克 Andrew Pifko
       丹·纳瓦罗 Dan Navarro
       哈里·斯坦德乔夫斯基 Harry Standjofski
       Cindy Robinson
       Keith Silverstein
       Christopher Corey Smith
       Annakin Slayd
       Paul Hurwitz


◎标  签 动画 | 2019 | 美国 | 摩比世界 | 亚当·兰伯特 | 片单 | 待看

◎简  介  

  继《乐高大电影》(The Lego Movie)之后,又一款建造类积木玩具“摩比”(Playmobil)将被拍成动画片!
  “摩比”是1975年发源于德国的一款玩具,和乐高类似也有很多不同的场景,目前已在超过100个国家和地区销售,很受孩子的欢迎。
  《摩比电影》由梦工厂动画《怪物大战外星人》(Monsters Vs. Aliens)的编剧Bob Persichetti负责,法国制片公司ON娱乐、Wild Bunch、Pathe联合制作,幕后创意团队大部分都是2015年动画片《小王子》(The Little Prince)的成员。
  该片计划2017年年底上映。

Video
ID                                       : 1
Format                                   : AVC
Format/Info                              : Advanced Video Codec
Format profile                           : [email protected]
Format settings                          : CABAC / 5 Ref Frames
Format settings, CABAC                   : Yes
Format settings, Reference frames        : 5 frames
Codec ID                                 : V_MPEG4/ISO/AVC
Duration                                 : 1 h 39 min
Bit rate                                 : 2 308 kb/s
Width                                    : 1 280 pixels
Height                                   : 536 pixels
Display aspect ratio                     : 2.40:1
Frame rate mode                          : Constant
Frame rate                               : 24.000 FPS
Color space                              : YUV
Chroma subsampling                       : 4:2:0
Bit depth                                : 8 bits
Scan type                                : Progressive
Bits/(Pixel*Frame)                       : 0.140
Stream size                              : 1.55 GiB (58%)
Writing library                          : x264 core 158 r2988 7817004
Encoding settings                        : cabac=1 / ref=5 / deblock=1:1:-2 / analyse=0x3:0x113 / me=umh / subme=8 / psy=1 / psy_rd=0.50:0.00 / mixed_ref=1 / me_range=24 / chroma_me=1 / trellis=2 / 8x8dct=1 / cqm=0 / deadzone=21,11 / fast_pskip=1 / chroma_qp_offset=-2 / threads=17 / lookahead_threads=2 / sliced_threads=0 / nr=0 / decimate=1 / interlaced=0 / bluray_compat=0 / constrained_intra=0 / bframes=3 / b_pyramid=2 / b_adapt=2 / b_bias=0 / direct=3 / weightb=1 / open_gop=0 / weightp=2 / keyint=240 / keyint_min=24 / scenecut=40 / intra_refresh=0 / rc_lookahead=50 / rc=2pass / mbtree=1 / bitrate=2308 / ratetol=1.0 / qcomp=0.60 / qpmin=0 / qpmax=69 / qpstep=4 / cplxblur=20.0 / qblur=0.5 / ip_ratio=1.40 / aq=3:0.50
Default                                  : Yes
Forced                                   : No
Statistics Tags Issue                    : no_variable_data 1970-01-01 00:00:00 / no_variable_data 2010-02-22 21:41:29
FromStats_BitRate                        : 2307757
FromStats_Duration                       : 01:39:07.625000000
FromStats_FrameCount                     : 142743
FromStats_StreamSize                     : 1715709501

Audio
ID                                       : 2
Format                                   : DTS
Format/Info                              : Digital Theater Systems
Codec ID                                 : A_DTS
Duration                                 : 1 h 39 min
Bit rate mode                            : Constant
Bit rate                                 : 1 509 kb/s
Channel(s)                               : 6 channels
Channel layout                           : C L R Ls Rs LFE
Sampling rate                            : 48.0 kHz
Frame rate                               : 93.750 FPS (512 SPF)
Bit depth                                : 24 bits
Compression mode                         : Lossy
Stream size                              : 1.04 GiB (40%)
Language                                 : English
Default                                  : Yes
Forced                                   : No
Statistics Tags Issue                    : no_variable_data 1970-01-01 00:00:00 / no_variable_data 2010-02-22 21:41:29
FromStats_BitRate                        : 1509000
FromStats_Duration                       : 01:39:07.616000000
FromStats_FrameCount                     : 557589
FromStats_StreamSize                     : 1121869068

Text
ID                                       : 3
Format                                   : UTF-8
Codec ID                                 : S_TEXT/UTF8
Codec ID/Info                            : UTF-8 Plain Text
Title                                    : SDH
Language                                 : English
Default                                  : No
Forced                                   : No
Statistics Tags Issue                    : no_variable_data 1970-01-01 00:00:00 / no_variable_data 2010-02-22 21:41:29
FromStats_BitRate                        : 85
FromStats_Duration                       : 01:37:57.583000000
FromStats_FrameCount                     : 1912
FromStats_StreamSize                     : 63047

Menu
00:00:00.000                             : en:Chapter 01
00:06:40.875                             : en:Chapter 02
00:13:33.000                             : en:Chapter 03
00:21:51.500                             : en:Chapter 04
00:28:30.708                             : en:Chapter 05
00:37:35.583                             : en:Chapter 06
00:47:43.125                             : en:Chapter 07
00:57:17.917                             : en:Chapter 08
01:07:25.000                             : en:Chapter 09
01:14:56.875                             : en:Chapter 10
01:22:29.875                             : en:Chapter 11
01:31:52.667                             : en:Chapter 12


悠悠MP4_MP4电影下载_摩比小子大电影 Playmobil.The.Movie.2019.720p.BluRay.x264-EiDER 2.65GB


提示:如迅雷下载提示"任务出错"、"因版权无法下载",请尝试【迅雷5】
上传的附件:
最新回复 (0)
返回
本站所有资源均收集自互联网,没有提供影片资源存储, 也未参与录制、上传,若本站收录的资源无意侵犯了您的权益, 请联系邮箱:gogoimgs#gmail.com(#=@)