[2019] [其他] [剧情] [BD-1080P] 篷车之旅 Caravan.2019.1080p.BluRay.x264-GETiT 7.94GB

uump4 10天前 72

帖子完整标题:篷车之旅 Caravan.2019.1080p.BluRay.x264-GETiT 7.94GB


悠悠MP4_MP4电影下载_篷车之旅 Caravan.2019.1080p.BluRay.x264-GETiT 7.94GB

◎译  名 篷车之旅 / Caravan
◎片  名 Roads
◎年  代 2019
◎产  地 德国 / 法国
◎类  别 剧情
◎语  言 英语 / 西班牙语 / 法语 / 德语 / 林加拉语
◎上映日期 2019-05-30(德国)
◎IMDb评分  6.8/10 from 193 users
◎IMDb链接  http://www.imdb.com/title/tt7303530
◎豆瓣评分 0/10 from 0 users
◎豆瓣链接 https://movie.douban.com/subject/27079210/
◎片  长 99分钟
◎导  演 塞巴斯蒂安·席佩尔 Sebastian Schipper
◎编  剧 塞巴斯蒂安·席佩尔 Sebastian Schipper / 奥利弗·泽根巴格 Oliver Ziegenbalg
◎主  演 菲恩·怀特海德 Fionn Whitehead
       斯特凡·巴克 Stéphane Bak
       本·卓别林 Ben Chaplin
       莫里兹·布雷多 Moritz Bleibtreu
       克劳迪娅·特鲁希略 Claudia Trujillo
       Marie Burchard
       Kris Hunter
       Josep Maria Alejandre
       Hamza Kadri
       Ricard Balada


◎标  签 德国 | fionnwhitehead | 法国 | 2019 | 怀特海德 | 剧情 | 菲恩 | 敦刻尔克男主

◎简  介  

  剧情讲述一个来自刚果的年轻人William(Stéphane Bak饰)尝试突破欧洲边界,来寻找他的兄弟,偶然遇见了狂野又机灵的Gyllen(怀特海德饰),后者刚刚开着继父的野营车从家庭摩洛哥之旅中溜了出来。两人开启了一段不可预测、激动人心、不可阻挡、充满混乱与幽默的旅程,只有生活在边缘的青少年才能点燃如此激情之火。

Video
ID                                       : 1
Format                                   : AVC
Format/Info                              : Advanced Video Codec
Format profile                           : [email protected]
Format settings                          : CABAC / 5 Ref Frames
Format settings, CABAC                   : Yes
Format settings, Reference frames        : 5 frames
Codec ID                                 : V_MPEG4/ISO/AVC
Duration                                 : 1 h 39 min
Bit rate                                 : 9 914 kb/s
Width                                    : 1 920 pixels
Height                                   : 808 pixels
Display aspect ratio                     : 2.40:1
Frame rate mode                          : Constant
Frame rate                               : 24.000 FPS
Color space                              : YUV
Chroma subsampling                       : 4:2:0
Bit depth                                : 8 bits
Scan type                                : Progressive
Bits/(Pixel*Frame)                       : 0.266
Stream size                              : 6.89 GiB (87%)
Writing library                          : x264 core 158 r2988 7817004
Encoding settings                        : cabac=1 / ref=5 / deblock=1:0:0 / analyse=0x3:0x133 / me=umh / subme=7 / psy=1 / psy_rd=1.00:0.00 / mixed_ref=1 / me_range=16 / chroma_me=1 / trellis=2 / 8x8dct=1 / cqm=0 / deadzone=21,11 / fast_pskip=0 / chroma_qp_offset=-2 / threads=16 / lookahead_threads=2 / sliced_threads=0 / nr=0 / decimate=1 / interlaced=0 / bluray_compat=0 / constrained_intra=0 / bframes=3 / b_pyramid=2 / b_adapt=1 / b_bias=0 / direct=3 / weightb=1 / open_gop=0 / weightp=2 / keyint=250 / keyint_min=24 / scenecut=40 / intra_refresh=0 / rc_lookahead=50 / rc=2pass / mbtree=1 / bitrate=9914 / ratetol=1.0 / qcomp=0.60 / qpmin=0 / qpmax=69 / qpstep=4 / cplxblur=20.0 / qblur=0.5 / ip_ratio=1.40 / aq=1:1.00
Language                                 : English
Default                                  : Yes
Forced                                   : No

Audio
ID                                       : 2
Format                                   : DTS
Format/Info                              : Digital Theater Systems
Codec ID                                 : A_DTS
Duration                                 : 1 h 39 min
Bit rate mode                            : Constant
Bit rate                                 : 1 509 kb/s
Channel(s)                               : 6 channels
Channel layout                           : C L R Ls Rs LFE
Sampling rate                            : 48.0 kHz
Frame rate                               : 93.750 FPS (512 SPF)
Bit depth                                : 24 bits
Compression mode                         : Lossy
Stream size                              : 1.05 GiB (13%)
Title                                    : DTS
Language                                 : English
Default                                  : Yes
Forced                                   : No

Menu
00:00:00.000                             : en:00:00:00.000
00:10:07.667                             : en:00:10:07.667
00:20:38.083                             : en:00:20:38.083
00:32:02.208                             : en:00:32:02.208
00:39:54.125                             : en:00:39:54.125
00:48:07.167                             : en:00:48:07.167
00:58:13.208                             : en:00:58:13.208
01:08:08.792                             : en:01:08:08.792
01:18:30.792                             : en:01:18:30.792
01:29:02.333                             : en:01:29:02.333


悠悠MP4_MP4电影下载_篷车之旅 Caravan.2019.1080p.BluRay.x264-GETiT 7.94GB


提示:如迅雷下载提示"任务出错"、"因版权无法下载",请尝试【迅雷5】
上传的附件:
最新回复 (0)
返回
本站所有资源均收集自互联网,没有提供影片资源存储, 也未参与录制、上传,若本站收录的资源无意侵犯了您的权益, 请联系邮箱:gogoimgs#gmail.com(#=@)