[2017] [其他] [剧情] [BD-1080P] 莫茜 My.Days.of.Mercy.2017.1080p.BluRay.x264.DTS-FGT 9.77GB

uump4 10天前 41

帖子完整标题:莫茜 My.Days.of.Mercy.2017.1080p.BluRay.x264.DTS-FGT 9.77GB


悠悠MP4_MP4电影下载_莫茜 My.Days.of.Mercy.2017.1080p.BluRay.x264.DTS-FGT 9.77GB

◎译  名 莫茜 / Mercy
◎片  名 My Days of Mercy
◎年  代 2017
◎产  地 英国 / 美国
◎类  别 剧情 / 爱情
◎语  言 英语
◎上映日期 2017-09-08(多伦多国际电影节) / 2019-04-05(英国) / 2019-07-05(美国)
◎IMDb评分 6.3/10 from 1516 users
◎IMDb链接 https://www.imdb.com/title/tt5978724
◎豆瓣评分 7.1/10 from 1159 users
◎豆瓣链接 https://movie.douban.com/subject/26864413/
◎片  长 107分钟
◎导  演 塔莉·埃泽尔 Tali Shalom-Ezer
◎编  剧 乔·巴顿 Joe Barton
◎主  演 凯特·玛拉 Kate Mara
      艾伦·佩吉 Ellen Page
      伊莱亚斯·科泰斯 Elias Koteas
      艾米·西米茨 Amy Seimetz
      布莱恩·格拉格提 Brian Geraghty
      博·纳普 Beau Knapp
      托尼娅·皮金斯 Tonya Pinkins
      杰克·罗宾森 Jake Robinson
      查理·肖特韦尔 Charlie Shotwell
      乔丹·崔威里恩 Jordan Trovillion
      凯文·克劳利 Kevin Crowley
      丹妮丝·达·维拉 Denise Dal Vera
      威廉·威利特 William Willet
      David Pittinger


◎标  签 同性 | LGBT | 美国 | 艾伦·佩吉 | les | EllenPage | 爱情 | 2017

◎简  介

  一个死囚犯的女儿Lucy(佩吉)呼吁废除死刑,遇到一个警官的女儿Mercy(玛拉),两人相爱了。而该警官的搭档被一个正要接受死刑的罪犯所杀,Lucy和Mercy立场对立,家人也无法接受这段关系,但她们的感情日益增加……
Video
ID : 1
Format : AVC
Format/Info : Advanced Video Codec
Format profile : [email protected]
Format settings : CABAC / 4 Ref Frames
Format settings, CABAC : Yes
Format settings, Reference frames : 4 frames
Codec ID : V_MPEG4/ISO/AVC
Duration : 1 h 47 min
Bit rate : 11.5 Mb/s
Width : 1 920 pixels
Height : 800 pixels
Display aspect ratio : 2.40:1
Frame rate mode : Constant
Frame rate : 24.000 FPS
Color space : YUV
Chroma subsampling : 4:2:0
Bit depth : 8 bits
Scan type : Progressive
Bits/(Pixel*Frame) : 0.312
Stream size : 8.63 GiB (88%)
Title : My.Days.of.Mercy.2017.1080p.BluRay.x264.DTS-FGT
Writing library : x264 core 148 r2795M aaa9aa8
Encoding settings : cabac=1 / ref=4 / deblock=1:-2:-2 / analyse=0x3:0x113 / me=umh / subme=9 / psy=1 / psy_rd=1.00:0.15 / mixed_ref=1 / me_range=16 / chroma_me=1 / trellis=2 / 8x8dct=1 / cqm=0 / deadzone=21,11 / fast_pskip=1 / chroma_qp_offset=-3 / threads=24 / lookahead_threads=3 / sliced_threads=0 / nr=0 / decimate=1 / interlaced=0 / bluray_compat=0 / constrained_intra=0 / bframes=3 / b_pyramid=2 / b_adapt=1 / b_bias=0 / direct=3 / weightb=1 / open_gop=0 / weightp=2 / keyint=250 / keyint_min=25 / scenecut=40 / intra_refresh=0 / rc_lookahead=50 / rc=2pass / mbtree=1 / bitrate=11500 / ratetol=1.0 / qcomp=0.60 / qpmin=0 / qpmax=69 / qpstep=4 / cplxblur=20.0 / qblur=0.5 / vbv_maxrate=31250 / vbv_bufsize=31250 / nal_hrd=none / filler=0 / ip_ratio=1.40 / aq=1:1.00
Language : English
Default : Yes
Forced : No

Audio
ID : 2
Format : DTS
Format/Info : Digital Theater Systems
Codec ID : A_DTS
Duration : 1 h 47 min
Bit rate mode : Constant
Bit rate : 1 509 kb/s
Channel(s) : 6 channels
Channel layout : C L R Ls Rs LFE
Sampling rate : 48.0 kHz
Frame rate : 93.750 FPS (512 SPF)
Bit depth : 16 bits
Compression mode : Lossy
Stream size : 1.13 GiB (12%)
Title : My.Days.of.Mercy.2017.1080p.BluRay.x264.DTS-FGT
Default : Yes
Forced : No

Text
ID : 3
Format : UTF-8
Codec ID : S_TEXT/UTF8
Codec ID/Info : UTF-8 Plain Text
Duration : 1 h 41 min
Bit rate : 45 b/s
Count of elements : 1109
Stream size : 34.3 KiB (0%)
Language : English
Default : Yes
Forced : No

Menu
00:00:00.000 : en:Chapter 01
00:08:38.208 : en:Chapter 02
00:16:33.750 : en:Chapter 03
00:30:13.083 : en:Chapter 04
00:32:24.833 : en:Chapter 05
00:40:14.250 : en:Chapter 06
00:49:36.666 : en:Chapter 07
00:58:03.583 : en:Chapter 08
01:05:37.583 : en:Chapter 09
01:15:33.500 : en:Chapter 10
01:27:35.625 : en:Chapter 11
01:42:30.333 : en:Chapter 12

悠悠MP4_MP4电影下载_莫茜 My.Days.of.Mercy.2017.1080p.BluRay.x264.DTS-FGT 9.77GB悠悠MP4_MP4电影下载_莫茜 My.Days.of.Mercy.2017.1080p.BluRay.x264.DTS-FGT 9.77GB悠悠MP4_MP4电影下载_莫茜 My.Days.of.Mercy.2017.1080p.BluRay.x264.DTS-FGT 9.77GB


提示:如迅雷下载提示"任务出错"、"因版权无法下载",请尝试【迅雷5】
上传的附件:
最新回复 (0)
返回
本站所有资源均收集自互联网,没有提供影片资源存储, 也未参与录制、上传,若本站收录的资源无意侵犯了您的权益, 请联系邮箱:gogoimgs#gmail.com(#=@)