[2019] [其他] [其他] [BD-1080P] 惑星逆行:麥可赫金斯 Mystify.Michael.Hutchence.2019.1080p.BluRay.x264.DTS-HD.MA.5.1-FGT 10

uump4 10天前 61

帖子完整标题:惑星逆行:麥可赫金斯 Mystify.Michael.Hutchence.2019.1080p.BluRay.x264.DTS-HD.MA.5.1-FGT 10.38GB


悠悠MP4_MP4电影下载_惑星逆行:麥可赫金斯 Mystify.Michael.Hutchence.2019.1080p.BluRay.x264.DTS-HD.MA.5.1-FGT 10

◎译  名 惑星逆行:麥可赫金斯
◎片  名 Mystify: Michael Hutchence
◎年  代 2019
◎产  地 澳大利亚
◎类  别 纪录片
◎语  言 英语
◎IMDb评分  7.6/10 from 285 users
◎IMDb链接  https://www.imdb.com/title/tt5938950
◎豆瓣评分 0/10 from 0 users
◎豆瓣链接 https://movie.douban.com/subject/33444633/
◎片  长 102分钟
◎导  演 Richard Lowenstein
◎编  剧 Richard Lowenstein
◎主  演 Michael Hutchence


◎简  介  

  七○年代末自雪梨發跡,流行搖滾天團 INXS 曾風靡 一時,主唱麥可赫金斯挾著迷人嗓音與俊俏外表, 以獨特的舞台魅力征服全球樂迷,被譽為史上最成 功的澳洲樂團之一。然而,在一次導致腦部受創的 嚴重車禍後,隱藏在他開朗性格與不羈生活背後的 認同困惑和對世俗的憤懣,似乎突然爆發開來。性 格驟變的他,終究沒能熬過事業低谷及家庭破碎的 壓力,在旅館內結束短短三十七歲的生命,徒留無 盡惋惜和重重疑雲??。
  曾為 INXS 樂團執導多部 MV 並獲獎的導演理查洛溫 斯坦,親自梳理麥可掌鏡拍攝的影像素材與媒體畫 面,並邀集凱莉米洛、U2 主唱波諾和樂團團員等親 朋故友現聲追憶,嘗試穿越謠言的迷霧,釐清他跌 宕波折卻鮮為人知的星途光景,見證澳洲搖滾巨星 演藝之路的起起落落,以及情感世界的悲歡離合。

Video
ID                                       : 1
Format                                   : AVC
Format/Info                              : Advanced Video Codec
Format profile                           : [email protected]
Format settings                          : CABAC / 4 Ref Frames
Format settings, CABAC                   : Yes
Format settings, Reference frames        : 4 frames
Codec ID                                 : V_MPEG4/ISO/AVC
Duration                                 : 1 h 41 min
Bit rate                                 : 11.5 Mb/s
Width                                    : 1 920 pixels
Height                                   : 804 pixels
Display aspect ratio                     : 2.40:1
Frame rate mode                          : Constant
Frame rate                               : 24.000 FPS
Color space                              : YUV
Chroma subsampling                       : 4:2:0
Bit depth                                : 8 bits
Scan type                                : Progressive
Bits/(Pixel*Frame)                       : 0.310
Stream size                              : 8.15 GiB (79%)
Title                                    : Mystify.Michael.Hutchence.2019.1080p.BluRay.x264.DTS-HD.MA.5.1-FGT
Writing library                          : x264 core 148 r2795M aaa9aa8
Encoding settings                        : cabac=1 / ref=4 / deblock=1:-2:-2 / analyse=0x3:0x113 / me=umh / subme=9 / psy=1 / psy_rd=1.00:0.15 / mixed_ref=1 / me_range=16 / chroma_me=1 / trellis=2 / 8x8dct=1 / cqm=0 / deadzone=21,11 / fast_pskip=1 / chroma_qp_offset=-3 / threads=24 / lookahead_threads=3 / sliced_threads=0 / nr=0 / decimate=1 / interlaced=0 / bluray_compat=0 / constrained_intra=0 / bframes=3 / b_pyramid=2 / b_adapt=1 / b_bias=0 / direct=3 / weightb=1 / open_gop=0 / weightp=2 / keyint=250 / keyint_min=25 / scenecut=40 / intra_refresh=0 / rc_lookahead=50 / rc=2pass / mbtree=1 / bitrate=11500 / ratetol=1.0 / qcomp=0.60 / qpmin=0 / qpmax=69 / qpstep=4 / cplxblur=20.0 / qblur=0.5 / vbv_maxrate=31250 / vbv_bufsize=31250 / nal_hrd=none / filler=0 / ip_ratio=1.40 / aq=1:1.00
Language                                 : English
Default                                  : Yes
Forced                                   : No

Audio
ID                                       : 2
Format                                   : DTS XLL
Format/Info                              : Digital Theater Systems
Commercial name                          : DTS-HD Master Audio
Codec ID                                 : A_DTS
Duration                                 : 1 h 41 min
Bit rate mode                            : Variable
Bit rate                                 : 3 125 kb/s
Channel(s)                               : 6 channels
Channel layout                           : C L R Ls Rs LFE
Sampling rate                            : 48.0 kHz
Frame rate                               : 93.750 FPS (512 SPF)
Bit depth                                : 24 bits
Compression mode                         : Lossless
Stream size                              : 2.23 GiB (21%)
Title                                    : Mystify.Michael.Hutchence.2019.1080p.BluRay.x264.DTS-HD.MA.5.1-FGT
Language                                 : English
Default                                  : Yes
Forced                                   : No

Text
ID                                       : 3
Format                                   : UTF-8
Codec ID                                 : S_TEXT/UTF8
Codec ID/Info                            : UTF-8 Plain Text
Duration                                 : 1 h 41 min
Bit rate                                 : 89 b/s
Count of elements                        : 1966
Stream size                              : 66.1 KiB (0%)
Language                                 : English
Default                                  : Yes
Forced                                   : No

Menu
00:00:00.000                             : en:Chapter 1
00:11:19.082                             : en:Chapter 2
00:20:23.958                             : en:Chapter 3
00:25:32.874                             : en:Chapter 4
00:35:21.291                             : en:Chapter 5
00:44:20.416                             : en:Chapter 6
00:51:48.957                             : en:Chapter 7
00:59:10.874                             : en:Chapter 8
01:06:25.874                             : en:Chapter 9
01:19:56.499                             : en:Chapter 10
01:27:02.916                             : en:Chapter 11
01:36:08.582                             : en:Chapter 12


悠悠MP4_MP4电影下载_惑星逆行:麥可赫金斯 Mystify.Michael.Hutchence.2019.1080p.BluRay.x264.DTS-HD.MA.5.1-FGT 10悠悠MP4_MP4电影下载_惑星逆行:麥可赫金斯 Mystify.Michael.Hutchence.2019.1080p.BluRay.x264.DTS-HD.MA.5.1-FGT 10悠悠MP4_MP4电影下载_惑星逆行:麥可赫金斯 Mystify.Michael.Hutchence.2019.1080p.BluRay.x264.DTS-HD.MA.5.1-FGT 10


提示:如迅雷下载提示"任务出错"、"因版权无法下载",请尝试【迅雷5】
上传的附件:
最新回复 (0)
返回
本站所有资源均收集自互联网,没有提供影片资源存储, 也未参与录制、上传,若本站收录的资源无意侵犯了您的权益, 请联系邮箱:gogoimgs#gmail.com(#=@)