[更早] [其他] [恐怖] [BD-1080P] 血婴/血腥宝贝 Baby.Blood.1990.DUBBED.1080p.BluRay.x264-WATCHABLE 8.73GB

uump4 5天前 60

帖子完整标题:血婴/血腥宝贝 Baby.Blood.1990.DUBBED.1080p.BluRay.x264-WATCHABLE 8.73GB


悠悠MP4_MP4电影下载_血婴/血腥宝贝 Baby.Blood.1990.DUBBED.1080p.BluRay.x264-WATCHABLE 8.73GB

◎译  名 血婴 / 血腥宝贝
◎片  名 Baby Blood
◎年  代 1990
◎产  地 法国
◎类  别 恐怖
◎语  言 法语
◎上映日期 1990-01-24
◎IMDb评分  5.9/10 from 1332 users
◎IMDb链接  https://www.imdb.com/title/tt0096871
◎豆瓣评分 5.4/10 from 131 users
◎豆瓣链接 https://movie.douban.com/subject/1824708/
◎片  长 82分钟
◎导  演 Alain Robak
◎编  剧 Serge Cukier / Alain Robak
◎主  演 Emmanuelle Escourrou
       Christian Sinniger
       Jean-Fran?ois Gallotte


◎标  签 恐怖 | 血腥 | 法国 | 恐怖片 | 法国电影 | 1990 | cult | 1990s

◎简  介  

  世界之初,当生命的第一把 火燃烧在非洲大地上时,一切生命形式都开始产生了。为了诞生成人,它附在年轻女子比安卡腹内,并不断吸取新鲜人血以获取诞生的力量...      一个魔鬼进入到年轻女子的 体内,需要饮鲜血才能活下来,于是女子杀人来喂养肚子里的恶魔      法国1990年阿兰.罗贝克 (《读脑人》)执导的恐怖片,艾曼纽.艾斯科罗(《巴黎怨曲》)、弗朗科斯.弗拉皮埃尔(《情场世界波》)主演。

Video
ID                                       : 1
Format                                   : AVC
Format/Info                              : Advanced Video Codec
Format profile                           : [email protected]
Format settings                          : CABAC / 4 Ref Frames
Format settings, CABAC                   : Yes
Format settings, Reference frames        : 4 frames
Codec ID                                 : V_MPEG4/ISO/AVC
Duration                                 : 1 h 27 min
Bit rate                                 : 13.5 Mb/s
Width                                    : 1 920 pixels
Height                                   : 1 040 pixels
Display aspect ratio                     : 1.85:1
Frame rate mode                          : Constant
Frame rate                               : 24.000 FPS
Color space                              : YUV
Chroma subsampling                       : 4:2:0
Bit depth                                : 8 bits
Scan type                                : Progressive
Bits/(Pixel*Frame)                       : 0.281
Stream size                              : 8.26 GiB (95%)
Title                                    : Baby Blood (1990)
Writing library                          : x264 core 158 r2988 7817004
Encoding settings                        : cabac=1 / ref=4 / deblock=1:0:0 / analyse=0x3:0x113 / me=umh / subme=8 / psy=1 / psy_rd=1.00:0.00 / mixed_ref=1 / me_range=16 / chroma_me=1 / trellis=2 / 8x8dct=1 / cqm=0 / deadzone=21,11 / fast_pskip=0 / chroma_qp_offset=-2 / threads=18 / lookahead_threads=3 / sliced_threads=0 / nr=0 / decimate=1 / interlaced=0 / bluray_compat=0 / constrained_intra=0 / bframes=3 / b_pyramid=2 / b_adapt=1 / b_bias=0 / direct=1 / weightb=1 / open_gop=0 / weightp=2 / keyint=250 / keyint_min=24 / scenecut=40 / intra_refresh=0 / rc_lookahead=50 / rc=2pass / mbtree=1 / bitrate=13468 / ratetol=1.0 / qcomp=0.60 / qpmin=0 / qpmax=69 / qpstep=4 / cplxblur=20.0 / qblur=0.5 / ip_ratio=1.40 / aq=1:1.00
Default                                  : Yes
Forced                                   : No

Audio
ID                                       : 2
Format                                   : DTS
Format/Info                              : Digital Theater Systems
Codec ID                                 : A_DTS
Duration                                 : 1 h 27 min
Bit rate mode                            : Constant
Bit rate                                 : 768 kb/s
Channel(s)                               : 2 channels
Channel layout                           : L R
Sampling rate                            : 48.0 kHz
Frame rate                               : 93.750 FPS (512 SPF)
Bit depth                                : 24 bits
Compression mode                         : Lossy
Stream size                              : 482 MiB (5%)
Language                                 : English
Default                                  : Yes
Forced                                   : No

Text #1
ID                                       : 3
Format                                   : UTF-8
Codec ID                                 : S_TEXT/UTF8
Codec ID/Info                            : UTF-8 Plain Text
Duration                                 : 14 min 18 s
Bit rate                                 : 11 b/s
Count of elements                        : 37
Stream size                              : 1.22 KiB (0%)
Title                                    : English Forced
Language                                 : English
Default                                  : Yes
Forced                                   : No

Text #2
ID                                       : 4
Format                                   : UTF-8
Codec ID                                 : S_TEXT/UTF8
Codec ID/Info                            : UTF-8 Plain Text
Duration                                 : 1 h 23 min
Bit rate                                 : 33 b/s
Count of elements                        : 616
Stream size                              : 20.6 KiB (0%)
Title                                    : German Full
Language                                 : German
Default                                  : No
Forced                                   : No

Menu
00:00:00.000                             : en:00:00:00.000
00:12:51.042                             : en:00:12:51.042
00:19:58.833                             : en:00:19:58.833
00:29:41.500                             : en:00:29:41.500
00:39:26.958                             : en:00:39:26.958
00:52:58.667                             : en:00:52:58.667
01:02:21.417                             : en:01:02:21.417
01:07:20.083                             : en:01:07:20.083
01:18:11.292                             : en:01:18:11.292


悠悠MP4_MP4电影下载_血婴/血腥宝贝 Baby.Blood.1990.DUBBED.1080p.BluRay.x264-WATCHABLE 8.73GB悠悠MP4_MP4电影下载_血婴/血腥宝贝 Baby.Blood.1990.DUBBED.1080p.BluRay.x264-WATCHABLE 8.73GB悠悠MP4_MP4电影下载_血婴/血腥宝贝 Baby.Blood.1990.DUBBED.1080p.BluRay.x264-WATCHABLE 8.73GB


提示:如迅雷下载提示"任务出错"、"因版权无法下载",请尝试【迅雷5】
上传的附件:
最新回复 (0)
返回
本站所有资源均收集自互联网,没有提供影片资源存储, 也未参与录制、上传,若本站收录的资源无意侵犯了您的权益, 请联系邮箱:gogoimgs#gmail.com(#=@)