[2019] [欧美] [其他] [BD-720P] 是非之地/迷失之地 Badland.2019.720p.BluRay.x264-ROVERS 5.47GB

uump4 5天前 67

帖子完整标题:是非之地/迷失之地 Badland.2019.720p.BluRay.x264-ROVERS 5.47GB


悠悠MP4_MP4电影下载_是非之地/迷失之地 Badland.2019.720p.BluRay.x264-ROVERS 5.47GB

◎译  名 是非之地 / 迷失之地
◎片  名 Badland
◎年  代 2019
◎产  地 美国
◎类  别 西部
◎语  言 英语
◎上映日期 2019-11(美国)
◎IMDb链接 https://www.imdb.com/title/tt10253466
◎豆瓣评分 0/10 from 0 users
◎豆瓣链接 https://movie.douban.com/subject/34839475/
◎导  演 Justin Lee
◎编  剧 Justin Lee
◎主  演 Kevin Makely
      米拉·索维诺 Mira Sorvino
      布鲁斯·邓恩 Bruce Dern
      韦斯·斯塔迪 Wes Studi
      特雷斯·阿德金斯 Trace Adkins
      杰夫·法赫 Jeff Fahey
      托尼·托德 Tony Todd
      詹姆斯·拉索 James Russo
      阿曼达·怀斯 Amanda Wyss
      瑞恩·凯利 Ryan Kelley
      托德·罗宾森 Todd Robinson
      Aidan Bristow
      Reggie Watkins
      Megan Therese Rippey
      Anita Leeman Torres


◎简  介

  暂无相关剧情介绍
Video
ID : 1
Format : AVC
Format/Info : Advanced Video Codec
Format profile : [email protected]
Format settings : CABAC / 5 Ref Frames
Format settings, CABAC : Yes
Format settings, Reference frames : 5 frames
Codec ID : V_MPEG4/ISO/AVC
Duration : 1 h 57 min
Bit rate : 5 167 kb/s
Width : 1 280 pixels
Height : 536 pixels
Display aspect ratio : 2.40:1
Frame rate mode : Constant
Frame rate : 23.976 (24000/1001) FPS
Color space : YUV
Chroma subsampling : 4:2:0
Bit depth : 8 bits
Scan type : Progressive
Bits/(Pixel*Frame) : 0.314
Stream size : 4.23 GiB (77%)
Writing library : x264 core 158 r2988 7817004
Encoding settings : cabac=1 / ref=5 / deblock=1:-3:-3 / analyse=0x3:0x133 / me=umh / subme=8 / psy=1 / psy_rd=1.00:0.00 / mixed_ref=1 / me_range=16 / chroma_me=1 / trellis=1 / 8x8dct=1 / cqm=0 / deadzone=21,11 / fast_pskip=0 / chroma_qp_offset=-2 / threads=17 / lookahead_threads=2 / sliced_threads=0 / nr=0 / decimate=1 / interlaced=0 / bluray_compat=0 / constrained_intra=0 / bframes=3 / b_pyramid=2 / b_adapt=1 / b_bias=0 / direct=3 / weightb=1 / open_gop=0 / weightp=2 / keyint=250 / keyint_min=23 / scenecut=40 / intra_refresh=0 / rc_lookahead=50 / rc=2pass / mbtree=1 / bitrate=5167 / ratetol=1.0 / qcomp=0.60 / qpmin=0 / qpmax=69 / qpstep=4 / cplxblur=20.0 / qblur=0.5 / vbv_maxrate=62500 / vbv_bufsize=78125 / nal_hrd=none / filler=0 / ip_ratio=1.40 / aq=1:1.00
Default : Yes
Forced : No

Audio
ID : 2
Format : DTS
Format/Info : Digital Theater Systems
Codec ID : A_DTS
Duration : 1 h 57 min
Bit rate mode : Constant
Bit rate : 1 509 kb/s
Channel(s) : 6 channels
Channel layout : C L R Ls Rs LFE
Sampling rate : 48.0 kHz
Frame rate : 93.750 FPS (512 SPF)
Bit depth : 24 bits
Compression mode : Lossy
Stream size : 1.23 GiB (23%)
Language : English
Default : Yes
Forced : No

Menu
00:00:00.000 : en:00:00:00.000
00:01:48.525 : en:00:01:48.525
00:14:26.783 : en:00:14:26.783
00:47:35.936 : en:00:47:35.936
01:06:50.089 : en:01:06:50.089
01:25:13.442 : en:01:25:13.442
01:48:47.730 : en:01:48:47.730
01:54:24.733 : en:01:54:24.733

悠悠MP4_MP4电影下载_是非之地/迷失之地 Badland.2019.720p.BluRay.x264-ROVERS 5.47GB


提示:如迅雷下载提示"任务出错"、"因版权无法下载",请尝试【迅雷5】
上传的附件:
最新回复 (0)
返回
本站所有资源均收集自互联网,没有提供影片资源存储, 也未参与录制、上传,若本站收录的资源无意侵犯了您的权益, 请联系邮箱:gogoimgs#gmail.com(#=@)