[更早] [其他] [剧情] [BD-1080P] 硬核标志/Band佬贵庚? Hard.Core.Logo.1996.1080p.BluRay.x264-HANDJOB 6.77GB

uump4 5天前 34

帖子完整标题:硬核标志/Band佬贵庚? Hard.Core.Logo.1996.1080p.BluRay.x264-HANDJOB 6.77GB


悠悠MP4_MP4电影下载_硬核标志/Band佬贵庚? Hard.Core.Logo.1996.1080p.BluRay.x264-HANDJOB 6.77GB

◎译  名 硬核标志 / Band佬贵庚?
◎片  名 Hard Core Logo
◎年  代 1996
◎产  地 加拿大
◎类  别 剧情 / 喜剧 / 音乐
◎语  言 英语 / 德语
◎上映日期 1996-10-11
◎IMDb评分  7.4/10 from 2467 users
◎IMDb链接  https://www.imdb.com/title/tt0116488
◎豆瓣评分 0/10 from 0 users
◎豆瓣链接 https://movie.douban.com/subject/1297976/
◎片  长 92 分钟
◎导  演 Bruce McDonald
◎编  剧 Noel S. Baker
◎主  演 Hugh Dillon
       Callum Keith Rennie
       John Pyper-Ferguson


◎标  签 摇滚 | 加拿大 | 音乐 | punk | hardcore | 加拿大电影 | 喜剧 | 剧情

◎简  介  

  暂无相关剧情介绍

Video
ID                                       : 1
Format                                   : AVC
Format/Info                              : Advanced Video Codec
Format profile                           : [email protected]
Format settings                          : CABAC / 4 Ref Frames
Format settings, CABAC                   : Yes
Format settings, Reference frames        : 4 frames
Codec ID                                 : V_MPEG4/ISO/AVC
Duration                                 : 1 h 32 min
Bit rate                                 : 9 868 kb/s
Width                                    : 1 916 pixels
Height                                   : 1 080 pixels
Display aspect ratio                     : 16:9
Frame rate mode                          : Constant
Frame rate                               : 23.976 (24000/1001) FPS
Color space                              : YUV
Chroma subsampling                       : 4:2:0
Bit depth                                : 8 bits
Scan type                                : Progressive
Bits/(Pixel*Frame)                       : 0.199
Stream size                              : 6.35 GiB (94%)
Writing library                          : x264 core 157 r2935 545de2f
Encoding settings                        : cabac=1 / ref=4 / deblock=1:-3:-3 / analyse=0x3:0x133 / me=umh / subme=10 / psy=1 / psy_rd=1.00:0.00 / mixed_ref=1 / me_range=32 / chroma_me=1 / trellis=2 / 8x8dct=1 / cqm=0 / deadzone=21,11 / fast_pskip=0 / chroma_qp_offset=-2 / threads=9 / lookahead_threads=2 / sliced_threads=0 / nr=0 / decimate=0 / interlaced=0 / bluray_compat=0 / constrained_intra=0 / bframes=16 / b_pyramid=2 / b_adapt=2 / b_bias=0 / direct=3 / weightb=1 / open_gop=0 / weightp=2 / keyint=240 / keyint_min=24 / scenecut=40 / intra_refresh=0 / rc_lookahead=60 / rc=crf / mbtree=0 / crf=23.0 / qcomp=0.60 / qpmin=0 / qpmax=69 / qpstep=4 / vbv_maxrate=62500 / vbv_bufsize=78125 / crf_max=0.0 / nal_hrd=none / filler=0 / ip_ratio=1.40 / pb_ratio=1.30 / aq=2:1.00
Default                                  : Yes
Forced                                   : No
Color range                              : Limited
Color primaries                          : BT.709
Transfer characteristics                 : BT.709
Matrix coefficients                      : BT.709

Audio
ID                                       : 2
Format                                   : AC-3
Format/Info                              : Audio Coding 3
Commercial name                          : Dolby Digital
Codec ID                                 : A_AC3
Duration                                 : 1 h 32 min
Bit rate mode                            : Constant
Bit rate                                 : 640 kb/s
Channel(s)                               : 6 channels
Channel layout                           : L R C LFE Ls Rs
Sampling rate                            : 48.0 kHz
Frame rate                               : 31.250 FPS (1536 SPF)
Bit depth                                : 16 bits
Compression mode                         : Lossy
Stream size                              : 422 MiB (6%)
Language                                 : English
Service kind                             : Complete Main
Default                                  : Yes
Forced                                   : No

Text
ID                                       : 3
Format                                   : UTF-8
Codec ID                                 : S_TEXT/UTF8
Codec ID/Info                            : UTF-8 Plain Text
Duration                                 : 1 h 31 min
Bit rate                                 : 90 b/s
Count of elements                        : 1546
Stream size                              : 60.8 KiB (0%)
Language                                 : English
Default                                  : No
Forced                                   : No

Menu
00:00:00.000                             : :Chapter 1
00:06:03.196                             : :Chapter 2
00:08:58.121                             : :Chapter 3
00:13:32.895                             : :Chapter 4
00:21:43.219                             : :Chapter 5
00:26:18.243                             : :Chapter 6
00:31:15.749                             : :Chapter 7
00:35:39.721                             : :Chapter 8
00:41:15.556                             : :Chapter 9
00:44:26.372                             : :Chapter 10
00:52:39.740                             : :Chapter 11
00:58:16.660                             : :Chapter 12
01:04:56.935                             : :Chapter 13
01:14:10.863                             : :Chapter 14
01:18:57.316                             : :Chapter 15
01:26:41.405                             : :Chapter 16


悠悠MP4_MP4电影下载_硬核标志/Band佬贵庚? Hard.Core.Logo.1996.1080p.BluRay.x264-HANDJOB 6.77GB悠悠MP4_MP4电影下载_硬核标志/Band佬贵庚? Hard.Core.Logo.1996.1080p.BluRay.x264-HANDJOB 6.77GB悠悠MP4_MP4电影下载_硬核标志/Band佬贵庚? Hard.Core.Logo.1996.1080p.BluRay.x264-HANDJOB 6.77GB


提示:如迅雷下载提示"任务出错"、"因版权无法下载",请尝试【迅雷5】
上传的附件:
最新回复 (0)
返回
本站所有资源均收集自互联网,没有提供影片资源存储, 也未参与录制、上传,若本站收录的资源无意侵犯了您的权益, 请联系邮箱:gogoimgs#gmail.com(#=@)