[2019] [欧美] [恐怖] [BD-4K] 小丑回魂2 It.Chapter.Two.2019.2160p.BluRay.x265.10bit.SDR.DTS-HD.MA.TrueHD.7.1.Atmos

uump4 9天前 60

帖子完整标题:小丑回魂2 It.Chapter.Two.2019.2160p.BluRay.x265.10bit.SDR.DTS-HD.MA.TrueHD.7.1.Atmos-SWTYBLZ 55.61GB


悠悠MP4_MP4电影下载_小丑回魂2 It.Chapter.Two.2019.2160p.BluRay.x265.10bit.SDR.DTS-HD.MA.TrueHD.7.1.Atmos

◎译  名 小丑回魂2 / It 2 / 它:第二章(台)
◎片  名 It: Chapter Two
◎年  代 2019
◎产  地 美国
◎类  别 恐怖
◎语  言 英语
◎上映日期 2019-09-06(美国)
◎IMDb评分 7.0/10 from 82324 users
◎IMDb链接 http://www.imdb.com/title/tt7349950
◎豆瓣评分 6.6/10 from 5037 users
◎豆瓣链接 https://movie.douban.com/subject/27133569/
◎片  长 169分钟
◎导  演 安德斯·穆斯切蒂 Andrés Muschietti
◎编  剧 加里·多伯曼 Gary Dauberman / 斯蒂芬·金 Stephen King
◎主  演 詹姆斯·麦卡沃伊 James McAvoy
      杰西卡·查斯坦 Jessica Chastain
      比尔·斯卡斯加德 Bill Skarsg?rd
      比尔·哈德尔 Bill Hader
      索菲娅·莉莉丝 Sophia Lillis
      杰克·迪伦·格雷泽 Jack Dylan Grazer
      菲恩·伍法德 Finn Wolfhard
      杰登·马泰尔 Jaeden Martell
      特洛伊·詹姆斯 Troy James
      哈维尔·博泰特 Javier Botet
      杰·瑞恩 Jay Ryan
      斯蒂芬·金 Stephen King
      杰克逊·罗伯特·斯科特 Jackson Robert Scott
      杰里米·雷·泰勒 Jeremy Ray Taylor
      泽维尔·多兰 Xavier Dolan
      杰克·威利 Jake Weary
      尼古拉斯·汉密尔顿 Nicholas Hamilton
      杰丝·威克斯勒 Jess Weixler
      詹姆斯·兰索恩 James Ransone
      瓦耶特·奥莱夫 Wyatt Oleff
      欧文·泰格 Owen Teague
      艾赛亚·穆斯塔法 Isaiah Mustafa
      安迪·比恩 Andy Bean
      蒂奇·格兰特 Teach Grant
      泰勒·飞瑞 Taylor Frey
      贾森·福克斯 Jason Fuchs
      乔森·雅各布 Chosen Jacobs
      斯蒂夫·博加尔特 Stephen Bogaert
      洛根·汤普森 Logan Thompson
      杰克·辛 Jake Sim
      维尔·贝布林克 Will Beinbrink
      安东尼·尤埃西 Anthony Ulc


◎标  签 恐怖 | 惊悚 | 美国 | 2019 | 小说改编 | 超自然 | 经典 | 小丑

◎简  介

  故事发生在1989年夏季事件的27年后,失败者俱乐部成员已经长大并搬走了,直到一个不详的电话把他们召回缅因州的德利镇,对抗他们古老、会变形的敌人—跳舞小丑潘尼怀斯。
Video
ID : 1
Format : HEVC
Format/Info : High Efficiency Video Coding
Format profile : Main [email protected]@High
Codec ID : V_MPEGH/ISO/HEVC
Duration : 2 h 49 min
Bit rate : 38.5 Mb/s
Width : 3 840 pixels
Height : 1 608 pixels
Display aspect ratio : 2.40:1
Frame rate mode : Constant
Frame rate : 23.976 (24000/1001) FPS
Color space : YUV
Chroma subsampling : 4:2:0
Bit depth : 10 bits
Bits/(Pixel*Frame) : 0.260
Stream size : 45.6 GiB (82%)
Title : It.Chapter.Two.2019.2160p.BluRay.x265.10bit.SDR.DTS-HD.MA.TrueHD.7.1.Atmos-SWTYBLZ
Writing library : x265 3.0ed72af837053:[Windows][GCC 8.2.0][64 bit] 10bit
Encoding settings : cpuid=1111039 / frame-threads=16 / numa-pools=24,24,24,24 / wpp / no-pmode / no-pme / no-psnr / no-ssim / log-level=2 / input-csp=1 / input-res=3840x1608 / interlace=0 / total-frames=243722 / level-idc=51 / high-tier=1 / uhd-bd=0 / ref=3 / no-allow-non-conformance / repeat-headers / annexb / aud / hrd / info / hash=0 / no-temporal-layers / no-open-gop / min-keyint=1 / keyint=24 / gop-lookahead=0 / bframes=4 / b-adapt=2 / b-pyramid / bframe-bias=0 / rc-lookahead=25 / lookahead-slices=4 / scenecut=40 / radl=0 / no-splice / no-intra-refresh / ctu=64 / min-cu-size=8 / no-rect / no-amp / max-tu-size=32 / tu-inter-depth=1 / tu-intra-depth=1 / limit-tu=0 / rdoq-level=0 / dynamic-rd=0.00 / no-ssim-rd / signhide / no-tskip / nr-intra=0 / nr-inter=0 / no-constrained-intra / strong-intra-smoothing / max-merge=2 / limit-refs=3 / no-limit-modes / me=1 / subme=2 / merange=57 / temporal-mvp / weightp / no-weightb / no-analyze-src-pics / deblock=0:0 / no-sao / no-sao-non-deblock / rd=3 / no-early-skip / rskip / no-fast-intra / no-tskip-fast / no-cu-lossless / no-b-intra / no-splitrd-skip / rdpenalty=0 / psy-rd=2.00 / psy-rdoq=0.00 / no-rd-refine / no-lossless / cbqpoffs=0 / crqpoffs=0 / rc=crf / crf=16.0 / qcomp=0.60 / qpstep=4 / stats-write=0 / stats-read=0 / vbv-maxrate=160000 / vbv-bufsize=160000 / vbv-init=0.9 / crf-max=0.0 / crf-min=0.0 / ipratio=1.40 / pbratio=1.30 / aq-mode=1 / aq-strength=1.00 / cutree / zone-count=0 / no-strict-cbr / qg-size=32 / no-rc-grain / qpmax=69 / qpmin=0 / no-const-vbv / sar=1 / overscan=0 / videoformat=5 / range=0 / colorprim=2 / transfer=2 / colormatrix=2 / chromaloc=0 / display-window=0 / max-cll=0,0 / min-luma=0 / max-luma=1023 / log2-max-poc-lsb=8 / vui-timing-info / vui-hrd-info / slices=1 / opt-qp-pps / opt-ref-list-length-pps / no-multi-pass-opt-rps / scenecut-bias=0.05 / no-opt-cu-delta-qp / no-aq-motion / no-hdr / no-hdr-opt / no-dhdr10-opt / no-idr-recovery-sei / analysis-reuse-level=5 / scale-factor=0 / refine-intra=0 / refine-inter=0 / refine-mv=0 / refine-ctu-distortion=0 / no-limit-sao / ctu-info=0 / no-lowpass-dct / refine-analysis-type=0 / copy-pic=1 / max-ausize-factor=1.0 / no-dynamic-refine / no-single-sei / no-hevc-aq / qp-adaptation-range=1.00
Default : Yes
Forced : No

Audio #1
ID : 2
Format : MLP FBA 16-ch
Format/Info : Meridian Lossless Packing FBA with 16-channel presentation
Commercial name : Dolby TrueHD with Dolby Atmos
Codec ID : A_TRUEHD
Duration : 2 h 49 min
Bit rate mode : Variable
Bit rate : 3 408 kb/s
Maximum bit rate : 5 559 kb/s
Channel(s) : 8 channels
Channel layout : L R C LFE Ls Rs Lb Rb
Sampling rate : 48.0 kHz
Frame rate : 1 200.000 FPS (40 SPF)
Compression mode : Lossless
Stream size : 4.03 GiB (7%)
Title : It.Chapter.Two.2019.2160p.BluRay.x265.10bit.SDR.DTS-HD.MA.TrueHD.7.1.Atmos-SWTYBLZ
Language : English
Default : Yes
Forced : No
Number of dynamic objects : 15
Bed channel count : 1 channel
Bed channel configuration : LFE

Audio #2
ID : 3
Format : DTS XLL
Format/Info : Digital Theater Systems
Commercial name : DTS-HD Master Audio
Codec ID : A_DTS
Duration : 2 h 49 min
Bit rate mode : Variable
Bit rate : 4 093 kb/s
Channel(s) : 8 channels
Channel layout : C L R LFE Lb Rb Lss Rss
Sampling rate : 48.0 kHz
Frame rate : 93.750 FPS (512 SPF)
Bit depth : 24 bits
Compression mode : Lossless
Stream size : 4.84 GiB (9%)
Title : It.Chapter.Two.2019.2160p.BluRay.x265.10bit.SDR.DTS-HD.MA.TrueHD.7.1.Atmos-SWTYBLZ
Language : English
Default : No
Forced : No

Audio #3
ID : 4
Format : AC-3
Format/Info : Audio Coding 3
Commercial name : Dolby Digital
Codec ID : A_AC3
Duration : 2 h 49 min
Bit rate mode : Constant
Bit rate : 640 kb/s
Channel(s) : 6 channels
Channel layout : L R C LFE Ls Rs
Sampling rate : 48.0 kHz
Frame rate : 31.250 FPS (1536 SPF)
Bit depth : 16 bits
Compression mode : Lossy
Stream size : 776 MiB (1%)
Title : It.Chapter.Two.2019.2160p.BluRay.x265.10bit.SDR.DTS-HD.MA.TrueHD.7.1.Atmos-SWTYBLZ
Language : English
Service kind : Complete Main
Default : No
Forced : No

Text #1
ID : 5
Format : UTF-8
Codec ID : S_TEXT/UTF8
Codec ID/Info : UTF-8 Plain Text
Duration : 2 h 44 min
Bit rate : 50 b/s
Count of elements : 2404
Stream size : 60.4 KiB (0%)
Title : English-SRT
Language : English
Default : Yes
Forced : No

Text #2
ID : 6
Format : PGS
Muxing mode : zlib
Codec ID : S_HDMV/PGS
Codec ID/Info : Picture based subtitle format used on BDs/HD-DVDs
Duration : 2 h 44 min
Bit rate : 34.3 kb/s
Count of elements : 5486
Stream size : 40.4 MiB (0%)
Title : English-PGS
Language : English
Default : No
Forced : No

Text #3
ID : 7
Format : PGS
Muxing mode : zlib
Codec ID : S_HDMV/PGS
Codec ID/Info : Picture based subtitle format used on BDs/HD-DVDs
Duration : 2 h 48 min
Bit rate : 22.0 kb/s
Count of elements : 3930
Stream size : 26.5 MiB (0%)
Title : French-PGS
Language : French
Default : No
Forced : No

Text #4
ID : 8
Format : PGS
Muxing mode : zlib
Codec ID : S_HDMV/PGS
Codec ID/Info : Picture based subtitle format used on BDs/HD-DVDs
Duration : 2 h 49 min
Bit rate : 32.3 kb/s
Count of elements : 5586
Stream size : 39.1 MiB (0%)
Title : Italian-PGS
Language : Italian
Default : No
Forced : No

Text #5
ID : 9
Format : PGS
Muxing mode : zlib
Codec ID : S_HDMV/PGS
Codec ID/Info : Picture based subtitle format used on BDs/HD-DVDs
Duration : 2 h 48 min
Bit rate : 24.9 kb/s
Count of elements : 4614
Stream size : 30.0 MiB (0%)
Title : Chinese-PGS
Language : Chinese
Default : No
Forced : No

Text #6
ID : 10
Format : PGS
Muxing mode : zlib
Codec ID : S_HDMV/PGS
Codec ID/Info : Picture based subtitle format used on BDs/HD-DVDs
Duration : 2 h 48 min
Bit rate : 30.4 kb/s
Count of elements : 4680
Stream size : 36.7 MiB (0%)
Title : Chinese-PGS
Language : Chinese
Default : No
Forced : No

Text #7
ID : 11
Format : PGS
Muxing mode : zlib
Codec ID : S_HDMV/PGS
Codec ID/Info : Picture based subtitle format used on BDs/HD-DVDs
Duration : 2 h 48 min
Bit rate : 25.5 kb/s
Count of elements : 4238
Stream size : 30.7 MiB (0%)
Title : Chinese-PGS
Language : Chinese
Default : No
Forced : No

Text #8
ID : 12
Format : PGS
Muxing mode : zlib
Codec ID : S_HDMV/PGS
Codec ID/Info : Picture based subtitle format used on BDs/HD-DVDs
Duration : 2 h 48 min
Bit rate : 16.8 kb/s
Count of elements : 4464
Stream size : 20.3 MiB (0%)
Title : Korean-PGS
Language : Korean
Default : No
Forced : No

Text #9
ID : 13
Format : PGS
Muxing mode : zlib
Codec ID : S_HDMV/PGS
Codec ID/Info : Picture based subtitle format used on BDs/HD-DVDs
Duration : 2 h 48 min
Bit rate : 26.1 kb/s
Count of elements : 4476
Stream size : 31.5 MiB (0%)
Title : Spanish-PGS
Language : Spanish
Default : No
Forced : No

Text #10
ID : 14
Format : PGS
Muxing mode : zlib
Codec ID : S_HDMV/PGS
Codec ID/Info : Picture based subtitle format used on BDs/HD-DVDs
Duration : 2 h 48 min
Bit rate : 27.4 kb/s
Count of elements : 4584
Stream size : 33.1 MiB (0%)
Title : Spanish-PGS
Language : Spanish
Default : No
Forced : No

Text #11
ID : 15
Format : PGS
Muxing mode : zlib
Codec ID : S_HDMV/PGS
Codec ID/Info : Picture based subtitle format used on BDs/HD-DVDs
Duration : 2 h 48 min
Bit rate : 25.9 kb/s
Count of elements : 4490
Stream size : 31.2 MiB (0%)
Title : Portuguese-PGS
Language : Portuguese
Default : No
Forced : No

Text #12
ID : 16
Format : PGS
Muxing mode : zlib
Codec ID : S_HDMV/PGS
Codec ID/Info : Picture based subtitle format used on BDs/HD-DVDs
Duration : 2 h 48 min
Bit rate : 27.1 kb/s
Count of elements : 4614
Stream size : 32.7 MiB (0%)
Title : Thai-PGS
Language : Thai
Default : No
Forced : No

Menu
00:00:00.000 : en:Chapter 01
00:09:10.216 : en:Chapter 02
00:19:06.270 : en:Chapter 03
00:27:00.744 : en:Chapter 04
00:37:51.060 : en:Chapter 05
00:46:19.693 : en:Chapter 06
00:55:46.468 : en:Chapter 07
01:05:36.182 : en:Chapter 08
01:17:18.759 : en:Chapter 09
01:29:21.522 : en:Chapter 10
01:41:02.973 : en:Chapter 11
01:49:11.211 : en:Chapter 12
01:59:33.666 : en:Chapter 13
02:05:31.774 : en:Chapter 14
02:14:25.932 : en:Chapter 15
02:22:43.888 : en:Chapter 16
02:32:57.042 : en:Chapter 17
02:42:15.475 : en:Chapter 18
02:44:52.424 : en:Chapter 19

悠悠MP4_MP4电影下载_小丑回魂2 It.Chapter.Two.2019.2160p.BluRay.x265.10bit.SDR.DTS-HD.MA.TrueHD.7.1.Atmos悠悠MP4_MP4电影下载_小丑回魂2 It.Chapter.Two.2019.2160p.BluRay.x265.10bit.SDR.DTS-HD.MA.TrueHD.7.1.Atmos悠悠MP4_MP4电影下载_小丑回魂2 It.Chapter.Two.2019.2160p.BluRay.x265.10bit.SDR.DTS-HD.MA.TrueHD.7.1.Atmos悠悠MP4_MP4电影下载_小丑回魂2 It.Chapter.Two.2019.2160p.BluRay.x265.10bit.SDR.DTS-HD.MA.TrueHD.7.1.Atmos悠悠MP4_MP4电影下载_小丑回魂2 It.Chapter.Two.2019.2160p.BluRay.x265.10bit.SDR.DTS-HD.MA.TrueHD.7.1.Atmos悠悠MP4_MP4电影下载_小丑回魂2 It.Chapter.Two.2019.2160p.BluRay.x265.10bit.SDR.DTS-HD.MA.TrueHD.7.1.Atmos悠悠MP4_MP4电影下载_小丑回魂2 It.Chapter.Two.2019.2160p.BluRay.x265.10bit.SDR.DTS-HD.MA.TrueHD.7.1.Atmos


提示:如迅雷下载提示"任务出错"、"因版权无法下载",请尝试【迅雷5】
上传的附件:
最新回复 (0)
返回
本站所有资源均收集自互联网,没有提供影片资源存储, 也未参与录制、上传,若本站收录的资源无意侵犯了您的权益, 请联系邮箱:gogoimgs#gmail.com(#=@)