[2019] [欧美] [恐怖] [4K-原盘] 小丑回魂2 It.Chapter.Two.2019.2160p.BluRay.REMUX.HEVC.DTS-HD.MA.TrueHD.7.1.Atmos-FGT

uump4 9天前 61

帖子完整标题:小丑回魂2 It.Chapter.Two.2019.2160p.BluRay.REMUX.HEVC.DTS-HD.MA.TrueHD.7.1.Atmos-FGT 82.09GB


悠悠MP4_MP4电影下载_小丑回魂2 It.Chapter.Two.2019.2160p.BluRay.REMUX.HEVC.DTS-HD.MA.TrueHD.7.1.Atmos-FGT

◎译  名 小丑回魂2 / It 2 / 它:第二章(台)
◎片  名 It: Chapter Two
◎年  代 2019
◎产  地 美国
◎类  别 恐怖
◎语  言 英语
◎上映日期 2019-09-06(美国)
◎IMDb评分  7.0/10 from 82324 users
◎IMDb链接  http://www.imdb.com/title/tt7349950
◎豆瓣评分 6.6/10 from 5037 users
◎豆瓣链接 https://movie.douban.com/subject/27133569/
◎片  长 169分钟
◎导  演 安德斯·穆斯切蒂 Andrés Muschietti
◎编  剧 加里·多伯曼 Gary Dauberman / 斯蒂芬·金 Stephen King
◎主  演 詹姆斯·麦卡沃伊 James McAvoy
       杰西卡·查斯坦 Jessica Chastain
       比尔·斯卡斯加德 Bill Skarsg?rd
       比尔·哈德尔 Bill Hader
       索菲娅·莉莉丝 Sophia Lillis
       杰克·迪伦·格雷泽 Jack Dylan Grazer
       菲恩·伍法德 Finn Wolfhard
       杰登·马泰尔 Jaeden Martell
       特洛伊·詹姆斯 Troy James
       哈维尔·博泰特 Javier Botet
       杰·瑞恩 Jay Ryan
       斯蒂芬·金 Stephen King
       杰克逊·罗伯特·斯科特 Jackson Robert Scott
       杰里米·雷·泰勒 Jeremy Ray Taylor
       泽维尔·多兰 Xavier Dolan
       杰克·威利 Jake Weary
       尼古拉斯·汉密尔顿 Nicholas Hamilton
       杰丝·威克斯勒 Jess Weixler
       詹姆斯·兰索恩 James Ransone
       瓦耶特·奥莱夫 Wyatt Oleff
       欧文·泰格 Owen Teague
       艾赛亚·穆斯塔法 Isaiah Mustafa
       安迪·比恩 Andy Bean
       蒂奇·格兰特 Teach Grant
       泰勒·飞瑞 Taylor Frey
       贾森·福克斯 Jason Fuchs
       乔森·雅各布 Chosen Jacobs
       斯蒂夫·博加尔特 Stephen Bogaert
       洛根·汤普森 Logan Thompson
       杰克·辛 Jake Sim
       维尔·贝布林克 Will Beinbrink
       安东尼·尤埃西 Anthony Ulc


◎标  签 恐怖 | 惊悚 | 美国 | 2019 | 小说改编 | 超自然 | 经典 | 小丑

◎简  介  

  故事发生在1989年夏季事件的27年后,失败者俱乐部成员已经长大并搬走了,直到一个不详的电话把他们召回缅因州的德利镇,对抗他们古老、会变形的敌人—跳舞小丑潘尼怀斯。

Video #1
ID                                       : 1
Format                                   : HEVC
Format/Info                              : High Efficiency Video Coding
Format profile                           : Main [email protected]@High
HDR format                               : SMPTE ST 2094 App 4, Version 1, HDR10+ Profile B compatible
Codec ID                                 : V_MPEGH/ISO/HEVC
Duration                                 : 2 h 49 min
Bit rate                                 : 53.6 Mb/s
Width                                    : 3 840 pixels
Height                                   : 2 160 pixels
Display aspect ratio                     : 16:9
Frame rate mode                          : Constant
Frame rate                               : 23.976 (24000/1001) FPS
Color space                              : YUV
Chroma subsampling                       : 4:2:0 (Type 2)
Bit depth                                : 10 bits
Bits/(Pixel*Frame)                       : 0.270
Stream size                              : 63.4 GiB (77%)
Title                                    : IT.Chapter.Two.2019.2160p.BluRay.REMUX.HEVC.DTS-HD.MA.TrueHD.7.1.Atmos-FGT
Language                                 : English
Default                                  : Yes
Forced                                   : No
Color range                              : Limited
Color primaries                          : BT.2020
Transfer characteristics                 : PQ
Matrix coefficients                      : BT.2020 non-constant
Mastering display color primaries        : Display P3
Mastering display luminance              : min: 0.0050 cd/m2, max: 4000 cd/m2

Video #2
ID                                       : 2
Format                                   : HEVC
Format/Info                              : High Efficiency Video Coding
Format profile                           : Main [email protected]@High
HDR format                               : SMPTE ST 2086, HDR10 compatible
Codec ID                                 : V_MPEGH/ISO/HEVC
Duration                                 : 2 h 49 min
Bit rate                                 : 63.5 kb/s
Width                                    : 1 920 pixels
Height                                   : 1 080 pixels
Display aspect ratio                     : 16:9
Frame rate mode                          : Constant
Frame rate                               : 23.976 (24000/1001) FPS
Color space                              : YUV
Chroma subsampling                       : 4:2:0 (Type 2)
Bit depth                                : 10 bits
Bits/(Pixel*Frame)                       : 0.001
Stream size                              : 77.0 MiB (0%)
Title                                    : IT.Chapter.Two.2019.2160p.BluRay.REMUX.HEVC.DTS-HD.MA.TrueHD.7.1.Atmos-FGT
Language                                 : English
Default                                  : No
Forced                                   : No
Color range                              : Limited
Color primaries                          : BT.2020
Transfer characteristics                 : PQ
Matrix coefficients                      : BT.2020 non-constant
Mastering display color primaries        : Display P3
Mastering display luminance              : min: 0.0050 cd/m2, max: 4000 cd/m2

Audio #1
ID                                       : 3
Format                                   : MLP FBA 16-ch
Format/Info                              : Meridian Lossless Packing FBA with 16-channel presentation
Commercial name                          : Dolby TrueHD with Dolby Atmos
Codec ID                                 : A_TRUEHD
Duration                                 : 2 h 49 min
Bit rate mode                            : Variable
Bit rate                                 : 3 408 kb/s
Maximum bit rate                         : 5 559 kb/s
Channel(s)                               : 8 channels
Channel layout                           : L R C LFE Ls Rs Lb Rb
Sampling rate                            : 48.0 kHz
Frame rate                               : 1 200.000 FPS (40 SPF)
Compression mode                         : Lossless
Stream size                              : 4.03 GiB (5%)
Title                                    : IT.Chapter.Two.2019.2160p.BluRay.REMUX.HEVC.DTS-HD.MA.TrueHD.7.1.Atmos-FGT
Language                                 : English
Default                                  : Yes
Forced                                   : No
Number of dynamic objects                : 15
Bed channel count                        : 1 channel
Bed channel configuration                : LFE

Audio #2
ID                                       : 4
Format                                   : DTS XLL
Format/Info                              : Digital Theater Systems
Commercial name                          : DTS-HD Master Audio
Codec ID                                 : A_DTS
Duration                                 : 2 h 49 min
Bit rate mode                            : Variable
Bit rate                                 : 4 093 kb/s
Channel(s)                               : 8 channels
Channel layout                           : C L R LFE Lb Rb Lss Rss
Sampling rate                            : 48.0 kHz
Frame rate                               : 93.750 FPS (512 SPF)
Bit depth                                : 24 bits
Compression mode                         : Lossless
Stream size                              : 4.84 GiB (6%)
Title                                    : IT.Chapter.Two.2019.2160p.BluRay.REMUX.HEVC.DTS-HD.MA.TrueHD.7.1.Atmos-FGT
Language                                 : English
Default                                  : No
Forced                                   : No

Audio #3
ID                                       : 5
Format                                   : AC-3
Format/Info                              : Audio Coding 3
Commercial name                          : Dolby Digital
Codec ID                                 : A_AC3
Duration                                 : 2 h 49 min
Bit rate mode                            : Constant
Bit rate                                 : 640 kb/s
Channel(s)                               : 6 channels
Channel layout                           : L R C LFE Ls Rs
Sampling rate                            : 48.0 kHz
Frame rate                               : 31.250 FPS (1536 SPF)
Bit depth                                : 16 bits
Compression mode                         : Lossy
Stream size                              : 776 MiB (1%)
Title                                    : IT.Chapter.Two.2019.2160p.BluRay.REMUX.HEVC.DTS-HD.MA.TrueHD.7.1.Atmos-FGT
Language                                 : English
Service kind                             : Complete Main
Default                                  : No
Forced                                   : No

Audio #4
ID                                       : 6
Format                                   : AC-3
Format/Info                              : Audio Coding 3
Commercial name                          : Dolby Digital
Codec ID                                 : A_AC3
Duration                                 : 2 h 49 min
Bit rate mode                            : Constant
Bit rate                                 : 448 kb/s
Channel(s)                               : 6 channels
Channel layout                           : L R C LFE Ls Rs
Sampling rate                            : 48.0 kHz
Frame rate                               : 31.250 FPS (1536 SPF)
Bit depth                                : 16 bits
Compression mode                         : Lossy
Stream size                              : 543 MiB (1%)
Title                                    : IT.Chapter.Two.2019.2160p.BluRay.REMUX.HEVC.DTS-HD.MA.TrueHD.7.1.Atmos-FGT
Language                                 : English
Service kind                             : Complete Main
Default                                  : No
Forced                                   : No

Audio #5
ID                                       : 7
Format                                   : AC-3
Format/Info                              : Audio Coding 3
Commercial name                          : Dolby Digital
Codec ID                                 : A_AC3
Duration                                 : 2 h 49 min
Bit rate mode                            : Constant
Bit rate                                 : 448 kb/s
Channel(s)                               : 6 channels
Channel layout                           : L R C LFE Ls Rs
Sampling rate                            : 48.0 kHz
Frame rate                               : 31.250 FPS (1536 SPF)
Bit depth                                : 16 bits
Compression mode                         : Lossy
Stream size                              : 543 MiB (1%)
Title                                    : IT.Chapter.Two.2019.2160p.BluRay.REMUX.HEVC.DTS-HD.MA.TrueHD.7.1.Atmos-FGT
Language


悠悠MP4_MP4电影下载_小丑回魂2 It.Chapter.Two.2019.2160p.BluRay.REMUX.HEVC.DTS-HD.MA.TrueHD.7.1.Atmos-FGT悠悠MP4_MP4电影下载_小丑回魂2 It.Chapter.Two.2019.2160p.BluRay.REMUX.HEVC.DTS-HD.MA.TrueHD.7.1.Atmos-FGT悠悠MP4_MP4电影下载_小丑回魂2 It.Chapter.Two.2019.2160p.BluRay.REMUX.HEVC.DTS-HD.MA.TrueHD.7.1.Atmos-FGT


提示:如迅雷下载提示"任务出错"、"因版权无法下载",请尝试【迅雷5】
上传的附件:
最新回复 (0)
返回
本站所有资源均收集自互联网,没有提供影片资源存储, 也未参与录制、上传,若本站收录的资源无意侵犯了您的权益, 请联系邮箱:gogoimgs#gmail.com(#=@)