[2006] [日本] [科幻] [BD-1080P] 红辣椒 Paprika.2006.JAPANESE.1080p.BluRay.x264.DTS-FGT 9.16GB

uump4 8月前 586

帖子完整标题:红辣椒 Paprika.2006.JAPANESE.1080p.BluRay.x264.DTS-FGT 9.16GB


悠悠MP4_MP4电影下载_红辣椒 Paprika.2006.JAPANESE.1080p.BluRay.x264.DTS-FGT 9.16GB

◎译  名 红辣椒 / Paprika / 帕布莉卡 / 盗梦侦探
◎片  名 パプリカ
◎年  代 2006
◎产  地 日本
◎类  别 科幻 / 动画 / 悬疑 / 惊悚
◎语  言 日语
◎上映日期 2006-09-02(威尼斯电影节) / 2006-11-25(日本)
◎IMDb评分  7.7/10 from 63482 users
◎IMDb链接  https://www.imdb.com/title/tt0851578
◎豆瓣评分 9.0/10 from 231249 users
◎豆瓣链接 https://movie.douban.com/subject/1865703/
◎片  长 90 分钟
◎导  演 今敏 Satoshi Kon
◎编  剧 水上清资 Seishi Minakami / 今敏 Satoshi Kon / 筒井康隆 Yasutaka Tsutsui
◎主  演 林原惠美 Megumi Hayashibara
       江守彻 Toru Emori
       堀胜之祐 Katsunosuke Hori
       古谷彻 T?ru Furuya
       大塚明夫 Akio ?tsuka
       山寺宏一 K?ichi Yamadera
       田中秀幸 Hideyuki Tanaka
       兴梠里美 Satomi Koorogi
       岩田光央 Mitsuo Iwata
       爱河里花子 Rikako Aikawa
       川濑晶子 Kawase Akiko
       太田真一郎 Shinichir? ?ta
       福松进纱 Shinya Fukumatsu
       胜杏里 Anri Katsu
       宫下荣治 Miyashita Eiji
       三户耕三 Kouzou Mito
       今敏 Satoshi Kon
       筒井康隆 Yasutaka Tsutsui


◎标  签 今敏 | 动画 | 日本 | 科幻 | 日本动画 | 悬疑 | 动漫 | 心理

◎简  介  

  近未来,为了治疗现代人类越来越多、越来越严重的精神疾病,位于东京的精神医疗综合研究所开发出一种可以反映他人梦境的机器。通过微型DC的帮助,梦境在显示器上呈现出来,更方便找到一个人焦虑的症结。
  某日,三台微型DC失窃,与之相关的研究人员的梦境接连被人侵入,随后受到严重伤害。美女医疗师千叶敦子另一个身份是梦境侦探“红辣椒”,她能够与患者同步体验梦境。为避免盗贼利用微型DC进一步作恶,她不得不潜入受害者的梦中寻找恐怖分子,一场充满奇幻和惊险的争斗旋即展开……
  本片入围2006年威尼斯电影节主竞赛单元,荣获2007年葡萄牙奇幻电影节影评人选择奖、2006年蒙特利尔电影节大众选择奖。

◎获奖情况  

  第63届威尼斯电影节(2006)
  主竞赛单元 金狮奖 (提名) 今敏

Video
ID                                       : 1
Format                                   : AVC
Format/Info                              : Advanced Video Codec
Format profile                           : [email protected]
Format settings                          : CABAC / 4 Ref Frames
Format settings, CABAC                   : Yes
Format settings, Reference frames        : 4 frames
Codec ID                                 : V_MPEG4/ISO/AVC
Duration                                 : 1 h 30 min
Bit rate                                 : 11.5 Mb/s
Width                                    : 1 840 pixels
Height                                   : 992 pixels
Display aspect ratio                     : 1.85:1
Frame rate mode                          : Constant
Frame rate                               : 23.976 (24000/1001) FPS
Color space                              : YUV
Chroma subsampling                       : 4:2:0
Bit depth                                : 8 bits
Scan type                                : Progressive
Bits/(Pixel*Frame)                       : 0.263
Stream size                              : 7.25 GiB (79%)
Title                                    : Paprika.2006.JAPANESE.1080p.BluRay.x264.DTS-FGT
Writing library                          : x264 core 148 r2795M aaa9aa8
Encoding settings                        : cabac=1 / ref=4 / deblock=1:1:1 / analyse=0x3:0x113 / me=umh / subme=8 / psy=1 / psy_rd=0.50:0.00 / mixed_ref=1 / me_range=32 / chroma_me=1 / trellis=2 / 8x8dct=1 / cqm=0 / deadzone=21,11 / fast_pskip=1 / chroma_qp_offset=-2 / threads=31 / lookahead_threads=3 / sliced_threads=0 / nr=0 / decimate=1 / interlaced=0 / bluray_compat=0 / constrained_intra=0 / bframes=3 / b_pyramid=2 / b_adapt=1 / b_bias=0 / direct=3 / weightb=1 / open_gop=0 / weightp=2 / keyint=240 / keyint_min=24 / scenecut=40 / intra_refresh=0 / rc_lookahead=50 / rc=2pass / mbtree=1 / bitrate=11500 / ratetol=1.0 / qcomp=0.60 / qpmin=0 / qpmax=69 / qpstep=4 / cplxblur=20.0 / qblur=0.5 / vbv_maxrate=31250 / vbv_bufsize=31250 / nal_hrd=none / filler=0 / ip_ratio=1.40 / aq=3:0.60
Default                                  : Yes
Forced                                   : No

Audio #1
ID                                       : 2
Format                                   : DTS
Format/Info                              : Digital Theater Systems
Codec ID                                 : A_DTS
Duration                                 : 1 h 30 min
Bit rate mode                            : Constant
Bit rate                                 : 1 509 kb/s
Channel(s)                               : 6 channels
Channel layout                           : C L R Ls Rs LFE
Sampling rate                            : 48.0 kHz
Frame rate                               : 93.750 FPS (512 SPF)
Bit depth                                : 16 bits
Compression mode                         : Lossy
Stream size                              : 977 MiB (10%)
Title                                    : Paprika.2006.JAPANESE.1080p.BluRay.x264.DTS-FGT
Language                                 : Japanese
Default                                  : Yes
Forced                                   : No

Audio #2
ID                                       : 3
Format                                   : DTS
Format/Info                              : Digital Theater Systems
Codec ID                                 : A_DTS
Duration                                 : 1 h 30 min
Bit rate mode                            : Constant
Bit rate                                 : 1 509 kb/s
Channel(s)                               : 6 channels
Channel layout                           : C L R Ls Rs LFE
Sampling rate                            : 48.0 kHz
Frame rate                               : 93.750 FPS (512 SPF)
Bit depth                                : 16 bits
Compression mode                         : Lossy
Stream size                              : 977 MiB (10%)
Title                                    : Paprika.2006.JAPANESE.1080p.BluRay.x264.DTS-FGT
Language                                 : English
Default                                  : No
Forced                                   : No

Text
ID                                       : 4
Format                                   : UTF-8
Codec ID                                 : S_TEXT/UTF8
Codec ID/Info                            : UTF-8 Plain Text
Duration                                 : 1 h 24 min
Bit rate                                 : 42 b/s
Count of elements                        : 803
Stream size                              : 26.3 KiB (0%)
Language                                 : English
Default                                  : Yes
Forced                                   : No

Menu
00:00:00.000                             : en:Magic Act
00:03:26.901                             : en:Opening Doors
00:06:11.502                             : en:Stolen Goods
00:09:34.535                             : en:Connection Control
00:13:03.202                             : en:Terrorist Dream
00:15:46.003                             : en:Breaking the Rules
00:20:13.203                             : en:A Little Rough
00:23:58.171                             : en:Dream Woman
00:26:35.304                             : en:New Victims
00:30:45.038                             : en:Incomplete Operation
00:32:56.338                             : en:Case Accident
00:36:04.838                             : en:Mystery Gain
00:38:49.205                             : en:Line of Action
00:41:59.338                             : en:Creating Dreams
00:45:54.272                             : en:Expanding Threat
00:47:37.339                             : en:Breaking Walls
00:48:35.806                             : en:Flight Search
00:51:53.839                             : en:One Huge Delusion
00:55:11.173                             : en:Endless Boundaries
00:56:36.273                             : en:Hand Chosen
00:58:54.007                             : en:Against the Odds
01:02:31.174                             : en:Manipulations
01:05:42.674                             : en:Dream Travel
01:08:07.074                             : en:Night Scare
01:10:32.141                             : en:Combining Words
01:12:53.675                             : en:Holding On
01:15:39.142                             : en:Try to Remember
01:19:21.876                             : en:Dark Battle


悠悠MP4_MP4电影下载_红辣椒 Paprika.2006.JAPANESE.1080p.BluRay.x264.DTS-FGT 9.16GB悠悠MP4_MP4电影下载_红辣椒 Paprika.2006.JAPANESE.1080p.BluRay.x264.DTS-FGT 9.16GB悠悠MP4_MP4电影下载_红辣椒 Paprika.2006.JAPANESE.1080p.BluRay.x264.DTS-FGT 9.16GB


提示:如迅雷下载提示"任务出错"、"因版权无法下载",请尝试【迅雷5】
上传的附件:
最新回复 (0)
返回
本站所有资源均收集自互联网,没有提供影片资源存储, 也未参与录制、上传,若本站收录的资源无意侵犯了您的权益, 请联系邮箱:gogoimgs#gmail.com(#=@)