[2017] [欧美] [恐怖] [BD-720P] 美国豚鼠3:所罗门之歌 American.Guinea.Pig.The.Song.Of.Solomon.2017.720p.BluRay.x264-CREEPS

uump4 24天前 248

帖子完整标题:美国豚鼠3:所罗门之歌 American.Guinea.Pig.The.Song.Of.Solomon.2017.720p.BluRay.x264-CREEPSHOW 4.36GB


悠悠MP4_MP4电影下载_美国豚鼠3:所罗门之歌 American.Guinea.Pig.The.Song.Of.Solomon.2017.720p.BluRay.x264-CREEPS

◎译  名 美国豚鼠3:所罗门之歌
◎片  名 American Guinea Pig: The Song of Solomon
◎年  代 2017
◎产  地 美国
◎类  别 恐怖
◎语  言 英语
◎上映日期 2017-10-07(美国)
◎IMDb评分 5.3/10 from 195 users
◎IMDb链接 https://www.imdb.com/title/tt6608032
◎豆瓣评分 0/10 from 0 users
◎豆瓣链接 https://movie.douban.com/subject/26992329/
◎导  演 Stephen Biro
◎编  剧 Stephen Biro
◎主  演 Jessica Cameron
      Jim Van Bebber
      David E. McMahon
      Andy Winton
      Scott Alan Warner
      Josh Townsend
      Gene Palubicki
      Scott Gabbey
      Maureen Pelamati
      Jeff Shedden


◎标  签 血腥 | 豚鼠系列 | 虐杀 | 美国 | 超屌恐怖系列 | 恐怖 | 国外恐怖 | 地下电影

◎简  介

  The Catholic Church is trying to save an innocent soul from the ravages of satanic possession. Wave after wave of holy men are sent to confront the possessed.
Video
ID : 1
Format : AVC
Format/Info : Advanced Video Codec
Format profile : [email protected]
Format settings : CABAC / 5 Ref Frames
Format settings, CABAC : Yes
Format settings, Reference frames : 5 frames
Codec ID : V_MPEG4/ISO/AVC
Duration : 1 h 25 min
Bit rate : 6 886 kb/s
Width : 1 280 pixels
Height : 672 pixels
Display aspect ratio : 1.905
Frame rate mode : Constant
Frame rate : 23.976 (24000/1001) FPS
Color space : YUV
Chroma subsampling : 4:2:0
Bit depth : 8 bits
Scan type : Progressive
Bits/(Pixel*Frame) : 0.334
Stream size : 4.12 GiB (94%)
Writing library : x264 core 157 r2969 d4099dd
Encoding settings : cabac=1 / ref=5 / deblock=1:-2:-2 / analyse=0x3:0x133 / me=umh / subme=9 / psy=1 / psy_rd=1.00:0.00 / mixed_ref=1 / me_range=16 / chroma_me=1 / trellis=2 / 8x8dct=1 / cqm=0 / deadzone=21,11 / fast_pskip=0 / chroma_qp_offset=-2 / threads=12 / lookahead_threads=1 / sliced_threads=0 / nr=0 / decimate=1 / interlaced=0 / bluray_compat=0 / constrained_intra=0 / bframes=3 / b_pyramid=2 / b_adapt=2 / b_bias=0 / direct=3 / weightb=1 / open_gop=0 / weightp=2 / keyint=240 / keyint_min=23 / scenecut=40 / intra_refresh=0 / rc_lookahead=50 / rc=2pass / mbtree=1 / bitrate=6886 / ratetol=1.0 / qcomp=0.60 / qpmin=0 / qpmax=69 / qpstep=4 / cplxblur=20.0 / qblur=0.5 / vbv_maxrate=62500 / vbv_bufsize=78125 / nal_hrd=none / filler=0 / ip_ratio=1.40 / aq=1:0.70
Default : Yes
Forced : No

Audio
ID : 2
Format : FLAC
Format/Info : Free Lossless Audio Codec
Codec ID : A_FLAC
Duration : 1 h 25 min
Bit rate mode : Variable
Bit rate : 406 kb/s
Channel(s) : 2 channels
Channel layout : L R
Sampling rate : 48.0 kHz
Frame rate : 11.719 FPS (4096 SPF)
Bit depth : 16 bits
Compression mode : Lossless
Stream size : 249 MiB (6%)
Writing library : libFLAC 1.3.3 (UTC 2019-08-04)
Language : English
Default : Yes
Forced : No

Menu
00:00:00.000 : en:Chapter 01
00:04:39.696 : en:Chapter 02
00:14:03.926 : en:Chapter 03
00:32:57.976 : en:Chapter 04
00:56:38.437 : en:Chapter 05
01:21:39.645 : en:Chapter 06

悠悠MP4_MP4电影下载_美国豚鼠3:所罗门之歌 American.Guinea.Pig.The.Song.Of.Solomon.2017.720p.BluRay.x264-CREEPS


提示:如迅雷下载提示"任务出错"、"因版权无法下载",请尝试【迅雷5】
上传的附件:
最新回复 (0)
返回
本站所有资源均收集自互联网,没有提供影片资源存储, 也未参与录制、上传,若本站收录的资源无意侵犯了您的权益, 请联系邮箱:gogoimgs#gmail.com(#=@)