[更早] [其他] [剧情] [WEB-1080P] 恋恋巴黎/幸福合作社 Le.Divorce.2003.1080p.WEBRip.x264-RARBG 2.24GB

uump4 5天前 62

帖子完整标题:恋恋巴黎/幸福合作社 Le.Divorce.2003.1080p.WEBRip.x264-RARBG 2.24GB


悠悠MP4_MP4电影下载_恋恋巴黎/幸福合作社 Le.Divorce.2003.1080p.WEBRip.x264-RARBG 2.24GB

◎译  名 恋恋巴黎 / 幸福合作社 / 离婚
◎片  名 Le divorce
◎年  代 2003
◎产  地 法国 / 美国
◎类  别 剧情 / 喜剧 / 爱情
◎语  言 英语 / 法语
◎上映日期 2003-08-29
◎IMDb评分  4.9/10 from 10682 users
◎IMDb链接  https://www.imdb.com/title/tt0306734
◎豆瓣评分 6.5/10 from 943 users
◎豆瓣链接 https://movie.douban.com/subject/1297565/
◎片  长 117 分钟
◎导  演 詹姆斯·伊沃里 James Ivory
◎编  剧 詹姆斯·伊沃里 James Ivory / 鲁丝·普罗厄·贾布瓦拉 Ruth Prawer Jhabvala
◎主  演 凯特·哈德森 Kate Hudson
       娜奥米·沃茨 Naomi Watts
       斯托卡特·詹宁 Stockard Channing
       罗曼·杜里斯 Romain Duris
       梅尔维尔·珀波 Melvil Poupaud
       蒂埃里·莱尔米特 Thierry Lhermitte
       莱斯利·卡伦 Leslie Caron
       格伦·克洛斯 Glenn Close
       斯蒂芬·弗雷 Stephen Fry


◎标  签 爱情 | 美国 | 法国 | NaomiWatts | KateHudson | 美国电影 | 2003 | 法國

◎简  介  

  由于受不了严谨的校纪校规,女孩伊莎贝尔(凯特·哈德森 Kate Hudson 饰)毅然离开了电影学院,过上了她所渴望的自由生活。伊莎贝尔的姐姐罗茜妮(娜奥米·沃茨 Naomi Watts 饰)定居于法国巴黎,身怀六甲的她惨遭画家丈夫查尔斯(梅尔维尔·珀波 Melvil Poupaud 饰)的背叛,愤怒的罗茜妮决定离婚,她给伊莎贝尔写了一封信,希望自己的妹妹能够来到自己身边,支持和陪伴她度过这一段艰难时期。
  一次偶然中,伊莎贝尔结识了名叫埃德加(蒂埃里·莱尔米特 Thierry Lhermitte 饰)的法国外交官,尽管埃德加已经是一个七十岁高龄的老人了,但伊莎贝尔依旧拜倒在了他的慷慨大方和风度翩翩之中。尽管伊莎贝尔和埃德加之间的恋情并不被他人所看好,但伊莎贝尔依然坚持着自己的想法和信念,直到某一日,她发现,埃德加竟然是自己的亲戚。

Video
ID                                       : 1
Format                                   : AVC
Format/Info                              : Advanced Video Codec
Format profile                           : [email protected]
Format settings                          : CABAC / 4 Ref Frames
Format settings, CABAC                   : Yes
Format settings, Reference frames        : 4 frames
Codec ID                                 : avc1
Codec ID/Info                            : Advanced Video Coding
Duration                                 : 1 h 57 min
Bit rate                                 : 2 500 kb/s
Width                                    : 1 920 pixels
Height                                   : 800 pixels
Display aspect ratio                     : 2.40:1
Frame rate mode                          : Constant
Frame rate                               : 23.976 (23976/1000) FPS
Color space                              : YUV
Chroma subsampling                       : 4:2:0
Bit depth                                : 8 bits
Scan type                                : Progressive
Bits/(Pixel*Frame)                       : 0.068
Stream size                              : 2.05 GiB (92%)
Writing library                          : x264 core 152 r2851M ba24899
Encoding settings                        : cabac=1 / ref=4 / deblock=1:-1:-1 / analyse=0x3:0x113 / me=umh / subme=9 / psy=1 / psy_rd=1.00:0.15 / mixed_ref=1 / me_range=24 / chroma_me=1 / trellis=2 / 8x8dct=1 / cqm=0 / deadzone=21,11 / fast_pskip=1 / chroma_qp_offset=-3 / threads=16 / lookahead_threads=4 / sliced_threads=0 / nr=0 / decimate=1 / interlaced=0 / bluray_compat=0 / constrained_intra=0 / bframes=3 / b_pyramid=2 / b_adapt=2 / b_bias=0 / direct=3 / weightb=1 / open_gop=0 / weightp=2 / keyint=250 / keyint_min=25 / scenecut=40 / intra_refresh=0 / rc_lookahead=50 / rc=2pass / mbtree=1 / bitrate=2500 / ratetol=1.0 / qcomp=0.60 / qpmin=0 / qpmax=69 / qpstep=4 / cplxblur=20.0 / qblur=0.5 / vbv_maxrate=31250 / vbv_bufsize=31250 / nal_hrd=none / filler=0 / ip_ratio=1.40 / aq=3:1.00
Encoded date                             : UTC 2019-11-09 02:36:55
Tagged date                              : UTC 2019-11-09 02:36:55
Codec configuration box                  : avcC

Audio
ID                                       : 2
Format                                   : AAC LC
Format/Info                              : Advanced Audio Codec Low Complexity
Codec ID                                 : mp4a-40-2
Duration                                 : 1 h 57 min
Bit rate mode                            : Constant
Bit rate                                 : 224 kb/s
Channel(s)                               : 6 channels
Channel layout                           : C L R Ls Rs LFE
Sampling rate                            : 48.0 kHz
Frame rate                               : 46.875 FPS (1024 SPF)
Compression mode                         : Lossy
Stream size                              : 188 MiB (8%)
Language                                 : English
Default                                  : Yes
Alternate group                          : 1
Encoded date                             : UTC 2019-11-09 02:36:55
Tagged date                              : UTC 2019-11-09 02:36:55


悠悠MP4_MP4电影下载_恋恋巴黎/幸福合作社 Le.Divorce.2003.1080p.WEBRip.x264-RARBG 2.24GB悠悠MP4_MP4电影下载_恋恋巴黎/幸福合作社 Le.Divorce.2003.1080p.WEBRip.x264-RARBG 2.24GB悠悠MP4_MP4电影下载_恋恋巴黎/幸福合作社 Le.Divorce.2003.1080p.WEBRip.x264-RARBG 2.24GB


提示:如迅雷下载提示"任务出错"、"因版权无法下载",请尝试【迅雷5】
上传的附件:
最新回复 (0)
返回
本站所有资源均收集自互联网,没有提供影片资源存储, 也未参与录制、上传,若本站收录的资源无意侵犯了您的权益, 请联系邮箱:gogoimgs#gmail.com(#=@)