[更早] [欧美] [喜剧] [WEB-1080P] 飞越温柔窝 Goin.South.1978.1080p.AMZN.WEBRip.DDP2.0.x264-monkee 10.91GB

uump4 6天前 48

帖子完整标题:飞越温柔窝 Goin.South.1978.1080p.AMZN.WEBRip.DDP2.0.x264-monkee 10.91GB


悠悠MP4_MP4电影下载_飞越温柔窝 Goin.South.1978.1080p.AMZN.WEBRip.DDP2.0.x264-monkee 10.91GB

◎译  名 飞越温柔窝
◎片  名 Goin' South
◎年  代 1978
◎产  地 美国
◎类  别 喜剧 / 西部
◎语  言 英语
◎上映日期 1978-10-06
◎IMDb评分  6.2/10 from 5833 users
◎IMDb链接  https://www.imdb.com/title/tt0077621
◎豆瓣评分 0/10 from 0 users
◎豆瓣链接 https://movie.douban.com/subject/1305000/
◎片  长 105 分钟
◎导  演 杰克·尼科尔森 Jack Nicholson
◎编  剧 Al Ramrus / Alan Mandel / 查尔斯·谢尔 Charles Shyer
◎主  演 杰克·尼科尔森 Jack Nicholson
       玛丽·斯汀伯根 Mary Steenburgen
       克里斯托弗·洛伊德 Christopher Lloyd
       约翰·贝鲁西 John Belushi
       维罗尼卡·卡维特 Veronica Cartwright
       Richard Bradford
       丹尼·德维托 Danny DeVito


◎标  签 JackNicholson | 美国 | 喜剧 | 1978 | 西部 | 西部片 | 美国电影 | 喜剧片

◎简  介  

  暂无相关剧情介绍

Video
ID                                       : 1
Format                                   : AVC
Format/Info                              : Advanced Video Codec
Format profile                           : [email protected]
Format settings                          : CABAC / 4 Ref Frames
Format settings, CABAC                   : Yes
Format settings, Reference frames        : 4 frames
Codec ID                                 : V_MPEG4/ISO/AVC
Duration                                 : 1 h 48 min
Bit rate mode                            : Variable
Bit rate                                 : 14.1 Mb/s
Maximum bit rate                         : 15.0 Mb/s
Width                                    : 1 920 pixels
Height                                   : 1 080 pixels
Display aspect ratio                     : 16:9
Frame rate mode                          : Constant
Frame rate                               : 23.976 (24000/1001) FPS
Color space                              : YUV
Chroma subsampling                       : 4:2:0
Bit depth                                : 8 bits
Scan type                                : Progressive
Bits/(Pixel*Frame)                       : 0.284
Stream size                              : 10.7 GiB (98%)
Default                                  : Yes
Forced                                   : No
Color range                              : Limited
Color primaries                          : BT.709
Transfer characteristics                 : BT.709
Matrix coefficients                      : BT.709

Audio
ID                                       : 2
Format                                   : E-AC-3
Format/Info                              : Enhanced AC-3
Commercial name                          : Dolby Digital Plus
Codec ID                                 : A_EAC3
Duration                                 : 1 h 48 min
Bit rate mode                            : Constant
Bit rate                                 : 224 kb/s
Channel(s)                               : 2 channels
Channel layout                           : L R
Sampling rate                            : 48.0 kHz
Frame rate                               : 31.250 FPS (1536 SPF)
Compression mode                         : Lossy
Stream size                              : 174 MiB (2%)
Language                                 : English
Service kind                             : Complete Main
Default                                  : Yes
Forced                                   : No

Text
ID                                       : 3
Format                                   : UTF-8
Codec ID                                 : S_TEXT/UTF8
Codec ID/Info                            : UTF-8 Plain Text
Duration                                 : 1 h 44 min
Bit rate                                 : 43 b/s
Count of elements                        : 1431
Stream size                              : 33.2 KiB (0%)
Language                                 : English
Default                                  : No
Forced                                   : No


悠悠MP4_MP4电影下载_飞越温柔窝 Goin.South.1978.1080p.AMZN.WEBRip.DDP2.0.x264-monkee 10.91GB悠悠MP4_MP4电影下载_飞越温柔窝 Goin.South.1978.1080p.AMZN.WEBRip.DDP2.0.x264-monkee 10.91GB悠悠MP4_MP4电影下载_飞越温柔窝 Goin.South.1978.1080p.AMZN.WEBRip.DDP2.0.x264-monkee 10.91GB悠悠MP4_MP4电影下载_飞越温柔窝 Goin.South.1978.1080p.AMZN.WEBRip.DDP2.0.x264-monkee 10.91GB悠悠MP4_MP4电影下载_飞越温柔窝 Goin.South.1978.1080p.AMZN.WEBRip.DDP2.0.x264-monkee 10.91GB悠悠MP4_MP4电影下载_飞越温柔窝 Goin.South.1978.1080p.AMZN.WEBRip.DDP2.0.x264-monkee 10.91GB


提示:如迅雷下载提示"任务出错"、"因版权无法下载",请尝试【迅雷5】
上传的附件:
最新回复 (0)
返回
本站所有资源均收集自互联网,没有提供影片资源存储, 也未参与录制、上传,若本站收录的资源无意侵犯了您的权益, 请联系邮箱:gogoimgs#gmail.com(#=@)