[2017] [其他] [其他] [WEB-1080P] 家庭主妇 Housewife.2017.1080p.AMZN.WEBRip.DDP5.1.x264-NTG 4.03GB

uump4 6天前 53

帖子完整标题:家庭主妇 Housewife.2017.1080p.AMZN.WEBRip.DDP5.1.x264-NTG 4.03GB


悠悠MP4_MP4电影下载_家庭主妇 Housewife.2017.1080p.AMZN.WEBRip.DDP5.1.x264-NTG 4.03GB

◎译  名 家庭主妇
◎片  名 Housewife
◎年  代 2017
◎产  地 土耳其
◎类  别 悬疑 / 惊悚 / 恐怖
◎语  言 英语
◎上映日期 2018-08-10(土耳其)
◎IMDb评分  4.8/10 from 912 users
◎IMDb链接  http://www.imdb.com/title/tt6464678
◎豆瓣评分 4.9/10 from 197 users
◎豆瓣链接 https://movie.douban.com/subject/27112937/
◎片  长 82分钟
◎导  演 Can Evrenol
◎编  剧 Can Evrenol / Cem ?züduru
◎主  演 克莱门泰·波达兹 Clémentine Poidatz
       大卫·樱井 David Sakurai
       Alicia Kapudag
       Defne Halman
       阿里·阿克索兹 Ali Aks?z
       Resit Berker Enhos
       Haktan Kaan Icel
       Alper Magriso


◎标  签 恐怖 | 惊悚 | 土耳其 | 宗教 | 悬疑 | 魔幻 | 土耳其电影 | 2018

◎简  介  

  On a snowy eve, Little Holly's sister and father are killed by her frantic mother. Years later, Holly is married, lonely, and her life is soon about take a turn for the ultra weird, when she visits "Umbrella of Love and Mind".

Video
ID                                       : 1
Format                                   : AVC
Format/Info                              : Advanced Video Codec
Format profile                           : [email protected]
Format settings                          : CABAC / 4 Ref Frames
Format settings, CABAC                   : Yes
Format settings, Reference frames        : 4 frames
Codec ID                                 : V_MPEG4/ISO/AVC
Duration                                 : 1 h 22 min
Bit rate                                 : 6 373 kb/s
Width                                    : 1 920 pixels
Height                                   : 872 pixels
Display aspect ratio                     : 2.2:1
Original display aspect ratio            : 2.2:1
Frame rate mode                          : Constant
Frame rate                               : 24.000 FPS
Color space                              : YUV
Chroma subsampling                       : 4:2:0
Bit depth                                : 8 bits
Scan type                                : Progressive
Bits/(Pixel*Frame)                       : 0.159
Stream size                              : 3.66 GiB (91%)
Default                                  : Yes
Forced                                   : No
Color range                              : Limited
Color primaries                          : BT.709
Transfer characteristics                 : BT.709
Matrix coefficients                      : BT.709

Audio
ID                                       : 2
Format                                   : E-AC-3
Format/Info                              : Enhanced AC-3
Commercial name                          : Dolby Digital Plus
Codec ID                                 : A_EAC3
Duration                                 : 1 h 22 min
Bit rate mode                            : Constant
Bit rate                                 : 640 kb/s
Channel(s)                               : 6 channels
Channel layout                           : L R C LFE Ls Rs
Sampling rate                            : 48.0 kHz
Frame rate                               : 31.250 FPS (1536 SPF)
Compression mode                         : Lossy
Stream size                              : 377 MiB (9%)
Language                                 : English
Service kind                             : Complete Main
Default                                  : Yes
Forced                                   : No

Text #1
ID                                       : 3
Format                                   : UTF-8
Codec ID                                 : S_TEXT/UTF8
Codec ID/Info                            : UTF-8 Plain Text
Duration                                 : 1 h 21 min
Bit rate                                 : 32 b/s
Count of elements                        : 770
Stream size                              : 19.2 KiB (0%)
Title                                    : SDH
Language                                 : English
Default                                  : No
Forced                                   : No

Text #2
ID                                       : 4
Format                                   : UTF-8
Codec ID                                 : S_TEXT/UTF8
Codec ID/Info                            : UTF-8 Plain Text
Duration                                 : 1 h 20 min
Bit rate                                 : 27 b/s
Count of elements                        : 629
Stream size                              : 16.2 KiB (0%)
Language                                 : Spanish
Default                                  : No
Forced                                   : No

Text #3
ID                                       : 5
Format                                   : UTF-8
Codec ID                                 : S_TEXT/UTF8
Codec ID/Info                            : UTF-8 Plain Text
Duration                                 : 1 h 20 min
Bit rate                                 : 28 b/s
Count of elements                        : 623
Stream size                              : 16.8 KiB (0%)
Language                                 : French
Default                                  : No
Forced                                   : No


悠悠MP4_MP4电影下载_家庭主妇 Housewife.2017.1080p.AMZN.WEBRip.DDP5.1.x264-NTG 4.03GB悠悠MP4_MP4电影下载_家庭主妇 Housewife.2017.1080p.AMZN.WEBRip.DDP5.1.x264-NTG 4.03GB悠悠MP4_MP4电影下载_家庭主妇 Housewife.2017.1080p.AMZN.WEBRip.DDP5.1.x264-NTG 4.03GB


提示:如迅雷下载提示"任务出错"、"因版权无法下载",请尝试【迅雷5】
上传的附件:
最新回复 (0)
返回
本站所有资源均收集自互联网,没有提供影片资源存储, 也未参与录制、上传,若本站收录的资源无意侵犯了您的权益, 请联系邮箱:gogoimgs#gmail.com(#=@)