[2007] [其他] [WEB-1080P] 艰难的审判/误判 Judicial.Indiscretion.2007.1080p.AMZN.WEBRip.DDP2.0.x264-ABM 8.19GB

uump4 6天前 42

帖子完整标题:艰难的审判/误判 Judicial.Indiscretion.2007.1080p.AMZN.WEBRip.DDP2.0.x264-ABM 8.19GB


悠悠MP4_MP4电影下载_艰难的审判/误判 Judicial.Indiscretion.2007.1080p.AMZN.WEBRip.DDP2.0.x264-ABM 8.19GB

◎译  名 艰难的审判 / 误判
◎片  名 Judicial Indiscretion
◎年  代 2007
◎产  地 加拿大
◎语  言 英语
◎上映日期 2007-04-07
◎IMDb评分  5.3/10 from 229 users
◎IMDb链接  https://www.imdb.com/title/tt0913399
◎豆瓣评分 0/10 from 0 users
◎豆瓣链接 https://movie.douban.com/subject/3118268/
◎导  演 George Mendeluk
◎编  剧 George Mendeluk
◎主  演 Anne Archer
       Michael Shanks


◎标  签 法官 | 犯罪 | 美国 | 法律 | 最高法院 | 文艺 | 总统 | 勒索

◎简  介  

  莫妮卡( 安妮亞契飾)是個傑出的法官,她堅持法律正義,在法界具有聲望,可能成為美國最高法院法官的提名人。某日,莫妮卡到舊金山度假,遇到愛爾蘭作家傑克(麥可夏克飾)搭訕並被他用迷藥下酒強姦 ,並不斷騷擾。其後,莫妮卡正式被總統提名為最高法院法官候選人,並開始進行宣傳活動,但被支持的參議員要求退出法官提名活動......

Video
ID                                       : 1
Format                                   : AVC
Format/Info                              : Advanced Video Codec
Format profile                           : [email protected]
Format settings                          : CABAC / 4 Ref Frames
Format settings, CABAC                   : Yes
Format settings, Reference frames        : 4 frames
Codec ID                                 : V_MPEG4/ISO/AVC
Duration                                 : 1 h 29 min
Bit rate                                 : 12.7 Mb/s
Width                                    : 1 920 pixels
Height                                   : 1 080 pixels
Display aspect ratio                     : 16:9
Frame rate mode                          : Constant
Frame rate                               : 23.976 (24000/1001) FPS
Color space                              : YUV
Chroma subsampling                       : 4:2:0
Bit depth                                : 8 bits
Scan type                                : Progressive
Bits/(Pixel*Frame)                       : 0.255
Stream size                              : 7.88 GiB (96%)
Language                                 : English
Default                                  : Yes
Forced                                   : No
Color range                              : Limited
Color primaries                          : BT.709
Transfer characteristics                 : BT.709
Matrix coefficients                      : BT.709

Audio
ID                                       : 2
Format                                   : E-AC-3
Format/Info                              : Enhanced AC-3
Commercial name                          : Dolby Digital Plus
Codec ID                                 : A_EAC3
Duration                                 : 1 h 29 min
Bit rate mode                            : Constant
Bit rate                                 : 224 kb/s
Channel(s)                               : 2 channels
Channel layout                           : L R
Sampling rate                            : 48.0 kHz
Frame rate                               : 31.250 FPS (1536 SPF)
Compression mode                         : Lossy
Stream size                              : 143 MiB (2%)
Language                                 : English
Service kind                             : Complete Main
Default                                  : Yes
Forced                                   : No

Text #1
ID                                       : 3
Format                                   : UTF-8
Codec ID                                 : S_TEXT/UTF8
Codec ID/Info                            : UTF-8 Plain Text
Language                                 : English
Default                                  : No
Forced                                   : No

Text #2
ID                                       : 4
Format                                   : UTF-8
Codec ID                                 : S_TEXT/UTF8
Codec ID/Info                            : UTF-8 Plain Text
Title                                    : SDH
Language                                 : English
Default                                  : No
Forced                                   : No


悠悠MP4_MP4电影下载_艰难的审判/误判 Judicial.Indiscretion.2007.1080p.AMZN.WEBRip.DDP2.0.x264-ABM 8.19GB悠悠MP4_MP4电影下载_艰难的审判/误判 Judicial.Indiscretion.2007.1080p.AMZN.WEBRip.DDP2.0.x264-ABM 8.19GB悠悠MP4_MP4电影下载_艰难的审判/误判 Judicial.Indiscretion.2007.1080p.AMZN.WEBRip.DDP2.0.x264-ABM 8.19GB


提示:如迅雷下载提示"任务出错"、"因版权无法下载",请尝试【迅雷5】
上传的附件:
最新回复 (0)
返回
本站所有资源均收集自互联网,没有提供影片资源存储, 也未参与录制、上传,若本站收录的资源无意侵犯了您的权益, 请联系邮箱:gogoimgs#gmail.com(#=@)