[2019] [欧美] [动作] [WEB-1080P] 从足球流氓到黑帮崛起4 Rise.of.the.Footsoldier.Marbella.2019.1080p.WEB-DL.DD5.1.H264-FGT 3.

uump4 5天前 45

帖子完整标题:从足球流氓到黑帮崛起4 Rise.of.the.Footsoldier.Marbella.2019.1080p.WEB-DL.DD5.1.H264-FGT 3.23GB


悠悠MP4_MP4电影下载_从足球流氓到黑帮崛起4 Rise.of.the.Footsoldier.Marbella.2019.1080p.WEB-DL.DD5.1.H264-FGT 3.

◎译  名 从足球流氓到黑帮崛起4
◎片  名 Rise of the Footsoldier 4: Marbella
◎年  代 2019
◎产  地 英国
◎类  别 动作 / 犯罪
◎语  言 英语
◎IMDb评分  7.7/10 from 7 users
◎IMDb链接  https://www.imdb.com/title/tt8769300
◎豆瓣评分 0/10 from 0 users
◎豆瓣链接 https://movie.douban.com/subject/30294889/
◎主  演 Craig Fairbrass


◎简  介  

  Fresh out of prison, Pat Tate (Craig Fairbrass) steps right back into his Essex nightclub business. But although the money is good, he can't stop brooding about the man who had him put away. It's not long before he's off to Marbella to find Frank Harris and seek his revenge. But Harris is long dead and the middle man Terry Fisher offers Pat the biggest drug deal of his life. All Pat needs is for his pals m.ysgou.cc Tony and Craig to deliver the cash from Essex to close the deal. But Craig being Craig, turns a simple plane trip to a massive road trip with a stolen VW van and its hippie German owner in tow. All Tony wants is to make it back in time to support his best friend Nigel Benn at the boxing match of his life. But when their cash gets stolen and Pat is threatened by a local firm, Pat comes up with an even more audacious plan and to get them back to England in time for Tony to walk Nigel Benn out to one of history's greatest fights.

Video
ID                                       : 1
Format                                   : AVC
Format/Info                              : Advanced Video Codec
Format profile                           : [email protected]
Format settings                          : CABAC / 4 Ref Frames
Format settings, CABAC                   : Yes
Format settings, Reference frames        : 4 frames
Codec ID                                 : V_MPEG4/ISO/AVC
Duration                                 : 1 h 25 min
Bit rate                                 : 5 053 kb/s
Width                                    : 1 916 pixels
Height                                   : 956 pixels
Display aspect ratio                     : 2.004
Frame rate mode                          : Constant
Frame rate                               : 24.000 FPS
Color space                              : YUV
Chroma subsampling                       : 4:2:0
Bit depth                                : 8 bits
Scan type                                : Progressive
Bits/(Pixel*Frame)                       : 0.115
Stream size                              : 3.00 GiB (93%)
Title                                    : Rise.of.the.Footsoldier.Marbella.2019.1080p.WEB-DL.DD5.1.H264-FGT
Language                                 : English
Default                                  : Yes
Forced                                   : No
Color range                              : Limited
Color primaries                          : BT.709
Transfer characteristics                 : BT.709
Matrix coefficients                      : BT.709

Audio
ID                                       : 2
Format                                   : AC-3
Format/Info                              : Audio Coding 3
Commercial name                          : Dolby Digital
Codec ID                                 : A_AC3
Duration                                 : 1 h 25 min
Bit rate mode                            : Constant
Bit rate                                 : 384 kb/s
Channel(s)                               : 6 channels
Channel layout                           : L R C LFE Ls Rs
Sampling rate                            : 48.0 kHz
Frame rate                               : 31.250 FPS (1536 SPF)
Bit depth                                : 16 bits
Compression mode                         : Lossy
Stream size                              : 234 MiB (7%)
Title                                    : Rise.of.the.Footsoldier.Marbella.2019.1080p.WEB-DL.DD5.1.H264-FGT
Language                                 : English
Service kind                             : Complete Main
Default                                  : Yes
Forced                                   : No

Menu
00:00:00.000                             : en:Chapter 1
00:23:44.000                             : en:Chapter 2
00:42:16.166                             : en:Chapter 3
01:00:54.791                             : en:Chapter 4
01:20:59.291                             : en:Chapter 5


悠悠MP4_MP4电影下载_从足球流氓到黑帮崛起4 Rise.of.the.Footsoldier.Marbella.2019.1080p.WEB-DL.DD5.1.H264-FGT 3.悠悠MP4_MP4电影下载_从足球流氓到黑帮崛起4 Rise.of.the.Footsoldier.Marbella.2019.1080p.WEB-DL.DD5.1.H264-FGT 3.悠悠MP4_MP4电影下载_从足球流氓到黑帮崛起4 Rise.of.the.Footsoldier.Marbella.2019.1080p.WEB-DL.DD5.1.H264-FGT 3.


提示:如迅雷下载提示"任务出错"、"因版权无法下载",请尝试【迅雷5】
上传的附件:
最新回复 (0)
返回
本站所有资源均收集自互联网,没有提供影片资源存储, 也未参与录制、上传,若本站收录的资源无意侵犯了您的权益, 请联系邮箱:gogoimgs#gmail.com(#=@)