[2019] [欧美] [惊悚] [WEB-1080P] 如梦初醒 Wake.Up.2019.1080p.WEB-DL.DD5.1.H264-FGT 3.02GB

uump4 5天前 43

帖子完整标题:如梦初醒 Wake.Up.2019.1080p.WEB-DL.DD5.1.H264-FGT 3.02GB


悠悠MP4_MP4电影下载_如梦初醒 Wake.Up.2019.1080p.WEB-DL.DD5.1.H264-FGT 3.02GB

◎译  名 如梦初醒 / Do Not Read
◎片  名 Wake Up
◎年  代 2019
◎产  地 美国
◎类  别 惊悚 / 恐怖
◎语  言 英语
◎上映日期 2019-01-09(美国)
◎IMDb评分 5.9/10 from 22 users
◎IMDb链接 https://www.imdb.com/title/tt7222228
◎豆瓣评分 0/10 from 0 users
◎豆瓣链接 https://movie.douban.com/subject/33402660/
◎片  长 77分钟
◎导  演 Joe W Nowland
◎编  剧 Joe W Nowland / Daniel White
◎主  演 Kelly Frances Fischer
      Scott Broughton
      Traci L. Newman


◎标  签 灵异 | 惊悚 | 美国电影 | 美国 | 恐怖 | 12

◎简  介

  When a psychiatric doctor researches a young girls' diary to find out why she murdered her entire family, he begins to fall into the same state of insomnia and confusion that led her to lose her mind.
Video
ID : 1
Format : AVC
Format/Info : Advanced Video Codec
Format profile : [email protected]
Format settings : CABAC / 4 Ref Frames
Format settings, CABAC : Yes
Format settings, Reference frames : 4 frames
Codec ID : V_MPEG4/ISO/AVC
Duration : 1 h 17 min
Bit rate : 5 164 kb/s
Width : 1 912 pixels
Height : 1 072 pixels
Display aspect ratio : 16:9
Frame rate mode : Constant
Frame rate : 23.976 (24000/1001) FPS
Color space : YUV
Chroma subsampling : 4:2:0
Bit depth : 8 bits
Scan type : Progressive
Bits/(Pixel*Frame) : 0.105
Stream size : 2.81 GiB (93%)
Title : Wake.Up.2019.1080p.WEB-DL.DD5.1.H264-FGT
Language : English
Default : Yes
Forced : No
Color range : Limited
Color primaries : BT.709
Transfer characteristics : BT.709
Matrix coefficients : BT.709

Audio
ID : 2
Format : AC-3
Format/Info : Audio Coding 3
Commercial name : Dolby Digital
Codec ID : A_AC3
Duration : 1 h 17 min
Bit rate mode : Constant
Bit rate : 384 kb/s
Channel(s) : 6 channels
Channel layout : L R C LFE Ls Rs
Sampling rate : 48.0 kHz
Frame rate : 31.250 FPS (1536 SPF)
Bit depth : 16 bits
Compression mode : Lossy
Stream size : 214 MiB (7%)
Title : Wake.Up.2019.1080p.WEB-DL.DD5.1.H264-FGT
Language : English
Service kind : Complete Main
Default : Yes
Forced : No

Text
ID : 3
Format : UTF-8
Codec ID : S_TEXT/UTF8
Codec ID/Info : UTF-8 Plain Text
Duration : 1 h 15 min
Bit rate : 75 b/s
Count of elements : 1281
Stream size : 42.2 KiB (0%)
Language : English
Default : Yes
Forced : No

Menu
00:00:00.000 : en:Chapter 1
00:08:57.537 : en:Chapter 2
00:21:01.260 : en:Chapter 3
00:29:41.780 : en:Chapter 4
00:41:15.473 : en:Chapter 5
00:50:49.045 : en:Chapter 6
00:58:36.512 : en:Chapter 7
01:08:35.110 : en:Chapter 8
01:16:03.558 : en:Chapter 9

悠悠MP4_MP4电影下载_如梦初醒 Wake.Up.2019.1080p.WEB-DL.DD5.1.H264-FGT 3.02GB悠悠MP4_MP4电影下载_如梦初醒 Wake.Up.2019.1080p.WEB-DL.DD5.1.H264-FGT 3.02GB悠悠MP4_MP4电影下载_如梦初醒 Wake.Up.2019.1080p.WEB-DL.DD5.1.H264-FGT 3.02GB


提示:如迅雷下载提示"任务出错"、"因版权无法下载",请尝试【迅雷5】
上传的附件:
最新回复 (0)
返回
本站所有资源均收集自互联网,没有提供影片资源存储, 也未参与录制、上传,若本站收录的资源无意侵犯了您的权益, 请联系邮箱:gogoimgs#gmail.com(#=@)