[更早] [欧美] [恐怖] [WEB-1080P] 夜海怪兽 Chupacabra.Dark.Seas.2005.1080p.AMZN.WEBRip.DDP2.0.x264-8CLAW 8.89GB

uump4 5天前 46

帖子完整标题:夜海怪兽 Chupacabra.Dark.Seas.2005.1080p.AMZN.WEBRip.DDP2.0.x264-8CLAW 8.89GB


悠悠MP4_MP4电影下载_夜海怪兽 Chupacabra.Dark.Seas.2005.1080p.AMZN.WEBRip.DDP2.0.x264-8CLAW 8.89GB

◎译  名 夜海怪兽 / Chupacabra: Dark Seas / 加勒比海怪 / 卓柏卡布拉
◎片  名 Chupacabra Terror
◎年  代 2005
◎产  地 美国
◎类  别 恐怖
◎语  言 英语
◎上映日期 2005-01-29(美国)
◎IMDb评分 3.4/10 from 1276 users
◎IMDb链接 https://www.imdb.com/title/tt0435617
◎豆瓣评分 3.6/10 from 234 users
◎豆瓣链接 https://movie.douban.com/subject/2301926/
◎片  长 88分钟
◎导  演 John Shepphird
◎编  剧 Steve Jankowski / John Shepphird
◎主  演 约翰·瑞斯-戴维斯 John Rhys-Davies
      迪兰·尼尔 Dylan Neal
      切兰·西蒙斯 Chelan Simmons
      吉安卡罗·埃斯波西托 Giancarlo Esposito
      保拉·肖 Paula Shaw
      大卫米伯尔尼 David Millbern
      Mark Viniello
      Joe Miller
      Matthew R. Anderson
      Luke Darnell
      David St. Pierre
      Garon Michael
      Luciano Olz
      Scott Jolgen
      Jason Pasquale
      Kyle LeMire
      Brandon Klock


◎标  签 美国 | 恐怖 | 惊悚 | 美国电影 | 2005 | 夜海怪兽 | 电影 | 烂片中的战斗机

◎简  介

  动物学博士帕拿(吉安卡罗.埃斯波西托饰)在加勒比海群岛中抓到了一头传说中的怪物:卓柏卡布拉,并想以其名垂科学界。他想用由伦道夫船长(约翰.卫趣斯.德卫斯饰)指挥的邮轮摄政女王号把它偷运回国,但在途中这头怪物却破笼而出,并到处杀害船员和乘客。海军特种部队被派往这艘船上收服这头怪物。但最终船长伦道夫和他的女儿詹妮、联邦执法官兰斯汤普森不得不深入虎穴来扭转败局.....
Video
ID : 1
Format : AVC
Format/Info : Advanced Video Codec
Format profile : [email protected]
Format settings : CABAC / 4 Ref Frames
Format settings, CABAC : Yes
Format settings, Reference frames : 4 frames
Codec ID : V_MPEG4/ISO/AVC
Duration : 1 h 28 min
Bit rate : 14.2 Mb/s
Width : 1 920 pixels
Height : 1 080 pixels
Display aspect ratio : 16:9
Frame rate mode : Constant
Frame rate : 23.976 (24000/1001) FPS
Color space : YUV
Chroma subsampling : 4:2:0
Bit depth : 8 bits
Scan type : Progressive
Bits/(Pixel*Frame) : 0.286
Stream size : 8.75 GiB (98%)
Default : Yes
Forced : No
Color range : Limited
Color primaries : BT.709
Transfer characteristics : BT.709
Matrix coefficients : BT.709

Audio
ID : 2
Format : E-AC-3
Format/Info : Enhanced AC-3
Commercial name : Dolby Digital Plus
Codec ID : A_EAC3
Duration : 1 h 28 min
Bit rate mode : Constant
Bit rate : 224 kb/s
Channel(s) : 2 channels
Channel layout : L R
Sampling rate : 48.0 kHz
Frame rate : 31.250 FPS (1536 SPF)
Compression mode : Lossy
Stream size : 141 MiB (2%)
Title : English
Language : English
Service kind : Complete Main
Default : Yes
Forced : No

悠悠MP4_MP4电影下载_夜海怪兽 Chupacabra.Dark.Seas.2005.1080p.AMZN.WEBRip.DDP2.0.x264-8CLAW 8.89GB悠悠MP4_MP4电影下载_夜海怪兽 Chupacabra.Dark.Seas.2005.1080p.AMZN.WEBRip.DDP2.0.x264-8CLAW 8.89GB悠悠MP4_MP4电影下载_夜海怪兽 Chupacabra.Dark.Seas.2005.1080p.AMZN.WEBRip.DDP2.0.x264-8CLAW 8.89GB


提示:如迅雷下载提示"任务出错"、"因版权无法下载",请尝试【迅雷5】
上传的附件:
最新回复 (0)
返回
本站所有资源均收集自互联网,没有提供影片资源存储, 也未参与录制、上传,若本站收录的资源无意侵犯了您的权益, 请联系邮箱:gogoimgs#gmail.com(#=@)