[2017] [欧美] [科幻] [WEB-1080P] 机器人弗雷迪 F.R.E.D.I.2018.1080p.WEBRip.X264-INFLATE 4.28GB

uump4 5天前 63

帖子完整标题:机器人弗雷迪 F.R.E.D.I.2018.1080p.WEBRip.X264-INFLATE 4.28GB


悠悠MP4_MP4电影下载_机器人弗雷迪 F.R.E.D.I.2018.1080p.WEBRip.X264-INFLATE 4.28GB

◎译  名 机器人弗雷迪 / FREDI
◎片  名 F.R.E.D.I.
◎年  代 2017
◎产  地 美国
◎类  别 科幻 / 家庭
◎语  言 英语
◎上映日期 2018-05-03(美国)
◎IMDb评分 5.1/10 from 680 users
◎IMDb链接 https://www.imdb.com/title/tt6146590
◎豆瓣评分 0/10 from 0 users
◎豆瓣链接 https://movie.douban.com/subject/27134452/
◎片  长 89分钟
◎导  演 肖恩·欧森 Sean Olson
◎编  剧 Garrett Brawith / Kat Olson
◎主  演 胡凯莉 Kelly Hu
      安古斯·麦克菲登 Angus Macfadyen
      泰勒·克里斯托弗 Tyler Christopher
      克里斯蒂娜·考克斯 Christina Cox
      特夏斯·巴特尔 Texas Battle
      哈维·吉兰 Harvey Guillen
      坎迪斯·欣克尔 Candyce Hinkle
      Lucius Hoyos
      Reid Miller
      Casimere Jollette
      Christian Beckman
      Dale Gibson


◎简  介

  An intelligent, lovable robot known as "F.R.E.D.I." is stolen from a secret research facility by the projects lead scientist. The robot is found by a 15 year old teenager, James. Soon the two begin to communicate and create a bond in which F.R.E.D.I. learns about teenage life and James learns about some new values.
Video
ID : 1
Format : AVC
Format/Info : Advanced Video Codec
Format profile : [email protected]
Format settings : CABAC / 5 Ref Frames
Format settings, CABAC : Yes
Format settings, Reference frames : 5 frames
Codec ID : V_MPEG4/ISO/AVC
Duration : 1 h 29 min
Bit rate : 6 196 kb/s
Width : 1 920 pixels
Height : 816 pixels
Display aspect ratio : 2.35:1
Frame rate mode : Constant
Frame rate : 23.976 (24000/1001) FPS
Color space : YUV
Chroma subsampling : 4:2:0
Bit depth : 8 bits
Scan type : Progressive
Bits/(Pixel*Frame) : 0.165
Stream size : 3.87 GiB (91%)
Writing library : x264 core 157 r2935 545de2f
Encoding settings : cabac=1 / ref=5 / deblock=1:-3:-3 / analyse=0x3:0x113 / me=hex / subme=8 / psy=1 / psy_rd=1.00:0.00 / mixed_ref=1 / me_range=16 / chroma_me=1 / trellis=2 / 8x8dct=1 / cqm=0 / deadzone=21,11 / fast_pskip=1 / chroma_qp_offset=-2 / threads=12 / lookahead_threads=2 / sliced_threads=0 / nr=0 / decimate=1 / interlaced=0 / bluray_compat=0 / constrained_intra=0 / bframes=3 / b_pyramid=2 / b_adapt=1 / b_bias=0 / direct=3 / weightb=1 / open_gop=0 / weightp=2 / keyint=250 / keyint_min=23 / scenecut=40 / intra_refresh=0 / rc_lookahead=50 / rc=crf / mbtree=1 / crf=17.0 / qcomp=0.60 / qpmin=0 / qpmax=69 / qpstep=4 / ip_ratio=1.40 / aq=1:1.00
Language : English
Default : Yes
Forced : No

Audio
ID : 2
Format : E-AC-3
Format/Info : Enhanced AC-3
Commercial name : Dolby Digital Plus
Codec ID : A_EAC3
Duration : 1 h 29 min
Bit rate mode : Constant
Bit rate : 640 kb/s
Channel(s) : 6 channels
Channel layout : L R C LFE Ls Rs
Sampling rate : 48.0 kHz
Frame rate : 31.250 FPS (1536 SPF)
Compression mode : Lossy
Stream size : 410 MiB (9%)
Title : English [Original]
Language : English
Service kind : Complete Main
Default : Yes
Forced : No

Text #1
ID : 3
Format : UTF-8
Codec ID : S_TEXT/UTF8
Codec ID/Info : UTF-8 Plain Text
Duration : 1 h 29 min
Bit rate : 68 b/s
Count of elements : 1473
Stream size : 44.9 KiB (0%)
Title : English
Language : English
Default : No
Forced : No

Text #2
ID : 4
Format : UTF-8
Codec ID : S_TEXT/UTF8
Codec ID/Info : UTF-8 Plain Text
Duration : 1 h 27 min
Bit rate : 55 b/s
Count of elements : 1367
Stream size : 35.5 KiB (0%)
Title : German
Language : German
Default : No
Forced : No

Text #3
ID : 5
Format : UTF-8
Codec ID : S_TEXT/UTF8
Codec ID/Info : UTF-8 Plain Text
Duration : 1 h 27 min
Bit rate : 51 b/s
Count of elements : 1301
Stream size : 33.5 KiB (0%)
Title : Dutch
Language : Dutch
Default : No
Forced : No

Text #4
ID : 6
Format : UTF-8
Codec ID : S_TEXT/UTF8
Codec ID/Info : UTF-8 Plain Text
Duration : 1 h 27 min
Bit rate : 57 b/s
Count of elements : 1405
Stream size : 37.3 KiB (0%)
Title : Danish
Language : Danish
Default : No
Forced : No

Text #5
ID : 7
Format : UTF-8
Codec ID : S_TEXT/UTF8
Codec ID/Info : UTF-8 Plain Text
Duration : 1 h 27 min
Bit rate : 51 b/s
Count of elements : 1391
Stream size : 33.1 KiB (0%)
Title : Norwegian
Language : Norwegian
Default : No
Forced : No

Text #6
ID : 8
Format : UTF-8
Codec ID : S_TEXT/UTF8
Codec ID/Info : UTF-8 Plain Text
Duration : 1 h 27 min
Bit rate : 54 b/s
Count of elements : 1299
Stream size : 35.0 KiB (0%)
Title : Portuguese
Language : Portuguese
Default : No
Forced : No

Text #7
ID : 9
Format : UTF-8
Codec ID : S_TEXT/UTF8
Codec ID/Info : UTF-8 Plain Text
Duration : 1 h 27 min
Bit rate : 56 b/s
Count of elements : 1403
Stream size : 36.2 KiB (0%)
Title : Brazilian Portuguese
Language : Portuguese
Default : No
Forced : No

Text #8
ID : 10
Format : UTF-8
Codec ID : S_TEXT/UTF8
Codec ID/Info : UTF-8 Plain Text
Duration : 1 h 27 min
Bit rate : 46 b/s
Count of elements : 1354
Stream size : 29.8 KiB (0%)
Title : Polish
Language : Polish
Default : No
Forced : No

Text #9
ID : 11
Format : UTF-8
Codec ID : S_TEXT/UTF8
Codec ID/Info : UTF-8 Plain Text
Duration : 1 h 27 min
Bit rate : 52 b/s
Count of elements : 1356
Stream size : 33.6 KiB (0%)
Title : European Spanish
Language : Spanish
Default : No
Forced : No

Text #10
ID : 12
Format : UTF-8
Codec ID : S_TEXT/UTF8
Codec ID/Info : UTF-8 Plain Text
Duration : 1 h 27 min
Bit rate : 82 b/s
Count of elements : 1351
Stream size : 52.8 KiB (0%)
Title : Greek
Language : Greek
Default : No
Forced : No

Text #11
ID : 13
Format : UTF-8
Codec ID : S_TEXT/UTF8
Codec ID/Info : UTF-8 Plain Text
Duration : 1 h 27 min
Bit rate : 57 b/s
Count of elements : 1285
Stream size : 36.9 KiB (0%)
Title : Spanish
Language : Spanish
Default : No
Forced : No

Text #12
ID : 14
Format : UTF-8
Codec ID : S_TEXT/UTF8
Codec ID/Info : UTF-8 Plain Text
Duration : 1 h 27 min
Bit rate : 59 b/s
Count of elements : 1408
Stream size : 38.5 KiB (0%)
Title : Swedish
Language : Swedish
Default : No
Forced : No

Text #13
ID : 15
Format : UTF-8
Codec ID : S_TEXT/UTF8
Codec ID/Info : UTF-8 Plain Text
Duration : 1 h 27 min
Bit rate : 48 b/s
Count of elements : 1340
Stream size : 31.3 KiB (0%)
Title : Italian
Language : Italian
Default : No
Forced : No

Text #14
ID : 16
Format : UTF-8
Codec ID : S_TEXT/UTF8
Codec ID/Info : UTF-8 Plain Text
Duration : 1 h 28 min
Bit rate : 50 b/s
Count of elements : 1324
Stream size : 32.9 KiB (0%)
Title : Finnish
Language : Finnish
Default : No
Forced : No

Text #15
ID : 17
Format : UTF-8
Codec ID : S_TEXT/UTF8
Codec ID/Info : UTF-8 Plain Text
Duration : 1 h 27 min
Bit rate : 58 b/s
Count of elements : 1386
Stream size : 37.7 KiB (0%)
Title : French
Language : French
Default : No
Forced : No

Text #16
ID : 18
Format : UTF-8
Codec ID : S_TEXT/UTF8
Codec ID/Info : UTF-8 Plain Text
Duration : 1 h 27 min
Bit rate : 54 b/s
Count of elements : 1405
Stream size : 35.4 KiB (0%)
Title : Turkish
Language : Turkish
Default : No
Forced : No

悠悠MP4_MP4电影下载_机器人弗雷迪 F.R.E.D.I.2018.1080p.WEBRip.X264-INFLATE 4.28GB


提示:如迅雷下载提示"任务出错"、"因版权无法下载",请尝试【迅雷5】
上传的附件:
最新回复 (0)
返回
本站所有资源均收集自互联网,没有提供影片资源存储, 也未参与录制、上传,若本站收录的资源无意侵犯了您的权益, 请联系邮箱:gogoimgs#gmail.com(#=@)