[2015] [欧美] [剧情] [WEB-1080P] 先贤之信 Faith.of.Our.Fathers.2015.1080p.AMZN.WEBRip.DDP5.1.x264-ABM 6.48GB

uump4 5天前 27

帖子完整标题:先贤之信 Faith.of.Our.Fathers.2015.1080p.AMZN.WEBRip.DDP5.1.x264-ABM 6.48GB


悠悠MP4_MP4电影下载_先贤之信 Faith.of.Our.Fathers.2015.1080p.AMZN.WEBRip.DDP5.1.x264-ABM 6.48GB

◎译  名 先贤之信
◎片  名 Faith of Our Fathers
◎年  代 2015
◎产  地 美国
◎类  别 剧情
◎语  言 英语
◎上映日期 2009-09-25
◎IMDb评分 3.6/10 from 554 users
◎IMDb链接 https://www.imdb.com/title/tt1322393
◎豆瓣评分 0/10 from 0 users
◎豆瓣链接 https://movie.douban.com/subject/3334811/
◎片  长 96分钟
◎导  演 Carey Scott
◎编  剧 Carey Scott
◎主  演 Stephen Baldwin
      Kevin Downes
      David A.R. White
      Ryan Doom
      Rebecca St. James
      Candace Cameron Bure


◎标  签 美国 | 2015

◎简  介

  两名美国青年踏上越南之旅,按着一封父辈的信的指引去寻找他们留下的足迹
Video
ID : 1
Format : AVC
Format/Info : Advanced Video Codec
Format profile : [email protected]
Format settings : CABAC / 4 Ref Frames
Format settings, CABAC : Yes
Format settings, Reference frames : 4 frames
Codec ID : V_MPEG4/ISO/AVC
Duration : 1 h 36 min
Bit rate mode : Variable
Bit rate : 8 967 kb/s
Maximum bit rate : 15.0 Mb/s
Width : 1 920 pixels
Height : 1 080 pixels
Display aspect ratio : 16:9
Frame rate mode : Constant
Frame rate : 23.976 (24000/1001) FPS
Color space : YUV
Chroma subsampling : 4:2:0
Bit depth : 8 bits
Scan type : Progressive
Bits/(Pixel*Frame) : 0.180
Stream size : 6.05 GiB (93%)
Default : Yes
Forced : No
Color range : Limited
Color primaries : BT.709
Transfer characteristics : BT.709
Matrix coefficients : BT.709

Audio
ID : 2
Format : E-AC-3
Format/Info : Enhanced AC-3
Commercial name : Dolby Digital Plus
Codec ID : A_EAC3
Duration : 1 h 36 min
Bit rate mode : Constant
Bit rate : 640 kb/s
Channel(s) : 6 channels
Channel layout : L R C LFE Ls Rs
Sampling rate : 48.0 kHz
Frame rate : 31.250 FPS (1536 SPF)
Compression mode : Lossy
Delay relative to video : 25 ms
Stream size : 442 MiB (7%)
Language : English
Service kind : Complete Main
Default : Yes
Forced : No

Text
ID : 3
Format : UTF-8
Codec ID : S_TEXT/UTF8
Codec ID/Info : UTF-8 Plain Text
Duration : 1 h 31 min
Bit rate : 56 b/s
Count of elements : 1201
Stream size : 38.1 KiB (0%)
Language : English
Default : No
Forced : No

悠悠MP4_MP4电影下载_先贤之信 Faith.of.Our.Fathers.2015.1080p.AMZN.WEBRip.DDP5.1.x264-ABM 6.48GB悠悠MP4_MP4电影下载_先贤之信 Faith.of.Our.Fathers.2015.1080p.AMZN.WEBRip.DDP5.1.x264-ABM 6.48GB悠悠MP4_MP4电影下载_先贤之信 Faith.of.Our.Fathers.2015.1080p.AMZN.WEBRip.DDP5.1.x264-ABM 6.48GB悠悠MP4_MP4电影下载_先贤之信 Faith.of.Our.Fathers.2015.1080p.AMZN.WEBRip.DDP5.1.x264-ABM 6.48GB悠悠MP4_MP4电影下载_先贤之信 Faith.of.Our.Fathers.2015.1080p.AMZN.WEBRip.DDP5.1.x264-ABM 6.48GB悠悠MP4_MP4电影下载_先贤之信 Faith.of.Our.Fathers.2015.1080p.AMZN.WEBRip.DDP5.1.x264-ABM 6.48GB


提示:如迅雷下载提示"任务出错"、"因版权无法下载",请尝试【迅雷5】
上传的附件:
最新回复 (0)
返回
本站所有资源均收集自互联网,没有提供影片资源存储, 也未参与录制、上传,若本站收录的资源无意侵犯了您的权益, 请联系邮箱:gogoimgs#gmail.com(#=@)