[更早] [欧美] [喜剧] [WEB-1080P] 森林泰山 George.Of.The.Jungle.1997.1080p.AMZN.WEBRip.DDP5.1.x264-NTb 8.94GB

uump4 5天前 36

帖子完整标题:森林泰山 George.Of.The.Jungle.1997.1080p.AMZN.WEBRip.DDP5.1.x264-NTb 8.94GB


悠悠MP4_MP4电影下载_森林泰山 George.Of.The.Jungle.1997.1080p.AMZN.WEBRip.DDP5.1.x264-NTb 8.94GB

◎译  名 森林泰山
◎片  名 George of the Jungle
◎年  代 1997
◎产  地 美国
◎类  别 喜剧 / 动作 / 爱情 / 家庭 / 冒险
◎语  言 英语 / 西班牙语
◎上映日期 1997-12-24
◎IMDb评分 5.5/10 from 65282 users
◎IMDb链接 http://www.imdb.com/title/tt0119190
◎豆瓣评分 7.0/10 from 5550 users
◎豆瓣链接 https://movie.douban.com/subject/1300130/
◎片  长 92 分钟
◎导  演 Sam Weisman
◎编  剧 奥黛丽·威尔斯 Audrey Wells / Dana Olsen
◎主  演 约翰·克立斯 John Cleese
      布兰登·费舍 Brendan Fraser
      托马斯·哈登·丘奇 Thomas Haden Church
      莱斯利·曼恩 Leslie Mann
      理查德·朗德特依 Richard Roundtree


◎标  签 喜剧 | 美国 | 美国电影 | 爱情 | 动作 | 1997 | 电影 | 森林泰山

◎简  介

  从小被猩猩养大的乔治(布兰登·费舍 Brendan Fraser饰)一直生活在茂密的丛林中,逐渐成了森林之王。白人少女乌苏拉(莱斯利·曼恩 Leslie Mann饰)与未婚夫莱尔(托马斯·哈登·丘奇 Thomas Haden Church饰)来到非洲丛林中探险。然而两人突然遭遇狮子的袭击,危急时刻,自私的男友居然扔下乌苏拉独自逃生。幸好乔治及时将她救下,将她带到丛林的树屋中。在这里,两人度过了一段美好奇妙的丛林时光,单纯善良的乔治也赢得了乌苏拉的芳心。然而死心不改的莱尔竟开枪射伤了乔治,甚至偕同几个盗猎者要抓乔治的猩猩朋友去卖钱。
由迪斯尼公司于1997年推出的卖座喜剧电影《森林泰山》,根据美国六、七十年代同名电视卡通系列片改编而成。真人版的《森林泰山》,风格节奏及人物塑造依旧保持着原卡通片的幽默夸张,巧妙地保留了动画风格。本片在当年的全球票房收入高达一亿七千万美元,同时也捧红了“森林之王”布兰登·费舍,使他一跃跻身为好莱坞当红小生的行列。

Video
ID : 1
Format : AVC
Format/Info : Advanced Video Codec
Format profile : [email protected]
Format settings : CABAC / 4 Ref Frames
Format settings, CABAC : Yes
Format settings, Reference frames : 4 frames
Codec ID : V_MPEG4/ISO/AVC
Duration : 1 h 31 min
Bit rate mode : Variable
Bit rate : 13.3 Mb/s
Maximum bit rate : 15.0 Mb/s
Width : 1 920 pixels
Height : 1 040 pixels
Display aspect ratio : 1.85:1
Frame rate mode : Constant
Frame rate : 23.976 (24000/1001) FPS
Color space : YUV
Chroma subsampling : 4:2:0
Bit depth : 8 bits
Scan type : Progressive
Bits/(Pixel*Frame) : 0.278
Stream size : 8.53 GiB (95%)
Writing library : x264 core 148 r2623 d5b2374
Encoding settings : cabac=1 / ref=4 / deblock=1:-1:-1 / analyse=0x3:0x133 / me=umh / subme=9 / psy=1 / psy_rd=1.00:0.15 / mixed_ref=1 / me_range=24 / chroma_me=1 / trellis=2 / 8x8dct=1 / cqm=0 / deadzone=21,11 / fast_pskip=1 / chroma_qp_offset=-3 / threads=32 / lookahead_threads=5 / sliced_threads=0 / nr=150 / decimate=1 / interlaced=0 / bluray_compat=0 / constrained_intra=0 / bframes=8 / b_pyramid=2 / b_adapt=2 / b_bias=0 / direct=3 / weightb=1 / open_gop=0 / weightp=2 / keyint=120 / keyint_min=61 / scenecut=0 / intra_refresh=0 / rc_lookahead=120 / rc=crf / mbtree=1 / crf=18.0 / qcomp=0.60 / qpmin=0 / qpmax=69 / qpstep=4 / vbv_maxrate=15000 / vbv_bufsize=31250 / crf_max=0.0 / nal_hrd=vbr / filler=0 / ip_ratio=1.40 / aq=3:1.00
Default : Yes
Forced : No
Color range : Limited
Color primaries : BT.709
Transfer characteristics : BT.709
Matrix coefficients : BT.709

Audio
ID : 2
Format : E-AC-3
Format/Info : Enhanced AC-3
Commercial name : Dolby Digital Plus
Codec ID : A_EAC3
Duration : 1 h 31 min
Bit rate mode : Constant
Bit rate : 640 kb/s
Channel(s) : 6 channels
Channel layout : L R C LFE Ls Rs
Sampling rate : 48.0 kHz
Frame rate : 31.250 FPS (1536 SPF)
Compression mode : Lossy
Stream size : 420 MiB (5%)
Language : English
Service kind : Complete Main
Default : Yes
Forced : No

Text
ID : 3
Format : UTF-8
Codec ID : S_TEXT/UTF8
Codec ID/Info : UTF-8 Plain Text
Duration : 1 h 31 min
Bit rate : 77 b/s
Count of elements : 1461
Stream size : 52.1 KiB (0%)
Language : English
Default : No
Forced : No

悠悠MP4_MP4电影下载_森林泰山 George.Of.The.Jungle.1997.1080p.AMZN.WEBRip.DDP5.1.x264-NTb 8.94GB悠悠MP4_MP4电影下载_森林泰山 George.Of.The.Jungle.1997.1080p.AMZN.WEBRip.DDP5.1.x264-NTb 8.94GB悠悠MP4_MP4电影下载_森林泰山 George.Of.The.Jungle.1997.1080p.AMZN.WEBRip.DDP5.1.x264-NTb 8.94GB悠悠MP4_MP4电影下载_森林泰山 George.Of.The.Jungle.1997.1080p.AMZN.WEBRip.DDP5.1.x264-NTb 8.94GB悠悠MP4_MP4电影下载_森林泰山 George.Of.The.Jungle.1997.1080p.AMZN.WEBRip.DDP5.1.x264-NTb 8.94GB悠悠MP4_MP4电影下载_森林泰山 George.Of.The.Jungle.1997.1080p.AMZN.WEBRip.DDP5.1.x264-NTb 8.94GB


提示:如迅雷下载提示"任务出错"、"因版权无法下载",请尝试【迅雷5】
上传的附件:
最新回复 (0)
返回
本站所有资源均收集自互联网,没有提供影片资源存储, 也未参与录制、上传,若本站收录的资源无意侵犯了您的权益, 请联系邮箱:gogoimgs#gmail.com(#=@)