[2019] [欧美] [WEB-1080P] VHS Nasty VHS.Nasty.2019.1080p.AMZN.WEBRip.DDP2.0.x264-iKA 5.72GB

uump4 5天前 52

帖子完整标题:VHS Nasty VHS.Nasty.2019.1080p.AMZN.WEBRip.DDP2.0.x264-iKA 5.72GB


悠悠MP4_MP4电影下载_VHS Nasty VHS.Nasty.2019.1080p.AMZN.WEBRip.DDP2.0.x264-iKA 5.72GB

◎译  名 
◎片  名 VHS Nasty
◎年  代 2019
◎产  地 英国
◎语  言 英语
◎上映日期 2019-10-31(英国)
◎IMDb链接 https://www.imdb.com/title/tt8897046
◎豆瓣评分 0/10 from 0 users
◎豆瓣链接 https://movie.douban.com/subject/34884578/
◎片  长 95分钟
◎导  演 Tony Newton
◎编  剧 Tony Newton

◎简  介

  VHS Nasty is part 3 in the infamous cult VHS doc series "VHS Lives". In the early 80's, VCR players were in every house, but a legendary cult following developed during the VHS era like no other, those that loved The Video Nasty! With video stores on every corner during the VHS boom, they were flooded with an array of horror the likes of which we will never see again. The sleeve art was awesome and these unregulated horror, gore and sexploitation films rocked before they were eventually banned in the UK and the hysteria started to spread across the globe! VHS Nasty delves deep into the cult classic satanic panic that is the video nasties, taking an in-depth look at censorship within horror films specifically the video nasty scandal that shook not only Britain in the early 80's, but shook the world into a frenzy of panic! Talking about cult video nasties such as Faces of Death, Cannibal Holocaust, The Texas Chainsaw Massacre, Driller Killer and many more. Brought to you by Tony Newton the creator and producer of VHS Lives series, 60 Seconds to Die, 1000 Zombies and the Grindsploitation film series
Video
ID : 1
Format : AVC
Format/Info : Advanced Video Codec
Format profile : [email protected]
Format settings : CABAC / 4 Ref Frames
Format settings, CABAC : Yes
Format settings, Reference frames : 4 frames
Codec ID : V_MPEG4/ISO/AVC
Duration : 1 h 35 min
Bit rate mode : Constant
Bit rate : 8 357 kb/s
Nominal bit rate : 10 000 kb/s
Width : 1 920 pixels
Height : 1 080 pixels
Display aspect ratio : 16:9
Frame rate mode : Constant
Frame rate : 23.976 (24000/1001) FPS
Color space : YUV
Chroma subsampling : 4:2:0
Bit depth : 8 bits
Scan type : Progressive
Bits/(Pixel*Frame) : 0.168
Stream size : 5.57 GiB (97%)
Default : Yes
Forced : No
Color range : Limited
Color primaries : BT.709
Transfer characteristics : BT.709
Matrix coefficients : BT.709

Audio
ID : 2
Format : E-AC-3
Format/Info : Enhanced AC-3
Commercial name : Dolby Digital Plus
Codec ID : A_EAC3
Duration : 1 h 35 min
Bit rate mode : Constant
Bit rate : 224 kb/s
Channel(s) : 2 channels
Channel layout : L R
Sampling rate : 48.0 kHz
Frame rate : 31.250 FPS (1536 SPF)
Compression mode : Lossy
Stream size : 153 MiB (3%)
Language : English
Service kind : Complete Main
Default : Yes
Forced : No

Text
ID : 3
Format : UTF-8
Codec ID : S_TEXT/UTF8
Codec ID/Info : UTF-8 Plain Text
Duration : 1 h 35 min
Bit rate : 117 b/s
Count of elements : 2024
Stream size : 82.2 KiB (0%)
Language : English
Default : No
Forced : No

悠悠MP4_MP4电影下载_VHS Nasty VHS.Nasty.2019.1080p.AMZN.WEBRip.DDP2.0.x264-iKA 5.72GB悠悠MP4_MP4电影下载_VHS Nasty VHS.Nasty.2019.1080p.AMZN.WEBRip.DDP2.0.x264-iKA 5.72GB悠悠MP4_MP4电影下载_VHS Nasty VHS.Nasty.2019.1080p.AMZN.WEBRip.DDP2.0.x264-iKA 5.72GB


提示:如迅雷下载提示"任务出错"、"因版权无法下载",请尝试【迅雷5】
上传的附件:
最新回复 (0)
返回
本站所有资源均收集自互联网,没有提供影片资源存储, 也未参与录制、上传,若本站收录的资源无意侵犯了您的权益, 请联系邮箱:gogoimgs#gmail.com(#=@)