[更早] [欧美] [恐怖] [BD-720P] 剥皮女魔 Skinner.1993.720p.BluRay.x264-SPOOKS 3.28GB

uump4 5天前 64

帖子完整标题:剥皮女魔 Skinner.1993.720p.BluRay.x264-SPOOKS 3.28GB


悠悠MP4_MP4电影下载_剥皮女魔 Skinner.1993.720p.BluRay.x264-SPOOKS 3.28GB

◎译  名 剥皮女魔
◎片  名 Skinner
◎年  代 1993
◎产  地 美国
◎类  别 恐怖
◎语  言 英语
◎上映日期 1995-07-12
◎IMDb评分  5.0/10 from 500 users
◎IMDb链接  http://www.imdb.com/title/tt0114466
◎豆瓣评分 0/10 from 0 users
◎豆瓣链接 https://movie.douban.com/subject/1298775/
◎片  长 90分钟
◎导  演 Ivan Nagy (I)
◎编  剧 Paul Hart-Wilden
◎主  演 Traci Lords
       Richard SchiffDavid
       Ted Raimi


◎标  签 恐怖 | 血腥 | 变态 | 剥皮女魔 | 杀戮 | 美国电影 | VCD | 1

◎简  介  

  海蒂被一残暴的神经病患丹尼斯毁容,他专门在城市里的街道及河边猎取不知情的妓女,海蒂一心复仇,无奈计划一次又一次地失败。正当另一名女子凯莉被丹尼斯抓走之际,海蒂及凯莉的丈夫杰夫及时在一间废弃的仓库找到了他们,就在丹尼斯准备切割凯莉时,海蒂牺牲了自己...。

Video
ID                                       : 1
Format                                   : AVC
Format/Info                              : Advanced Video Codec
Format profile                           : [email protected]
Format settings                          : CABAC / 9 Ref Frames
Format settings, CABAC                   : Yes
Format settings, Reference frames        : 9 frames
Codec ID                                 : V_MPEG4/ISO/AVC
Duration                                 : 1 h 28 min
Bit rate                                 : 4 756 kb/s
Width                                    : 1 280 pixels
Height                                   : 720 pixels
Display aspect ratio                     : 16:9
Frame rate mode                          : Constant
Frame rate                               : 23.976 (24000/1001) FPS
Color space                              : YUV
Chroma subsampling                       : 4:2:0
Bit depth                                : 8 bits
Scan type                                : Progressive
Bits/(Pixel*Frame)                       : 0.215
Stream size                              : 2.93 GiB (89%)
Writing library                          : x264 core 158 r2988 7817004
Encoding settings                        : cabac=1 / ref=9 / deblock=1:-3:-3 / analyse=0x3:0x133 / me=umh / subme=9 / psy=1 / psy_rd=1.00:0.00 / mixed_ref=1 / me_range=24 / chroma_me=1 / trellis=1 / 8x8dct=1 / cqm=0 / deadzone=21,11 / fast_pskip=0 / chroma_qp_offset=-2 / threads=22 / lookahead_threads=3 / sliced_threads=0 / nr=0 / decimate=1 / interlaced=0 / bluray_compat=0 / constrained_intra=0 / bframes=8 / b_pyramid=2 / b_adapt=2 / b_bias=0 / direct=3 / weightb=1 / open_gop=0 / weightp=2 / keyint=250 / keyint_min=23 / scenecut=40 / intra_refresh=0 / rc_lookahead=60 / rc=2pass / mbtree=1 / bitrate=4756 / ratetol=1.0 / qcomp=0.60 / qpmin=0 / qpmax=69 / qpstep=4 / cplxblur=20.0 / qblur=0.5 / vbv_maxrate=62500 / vbv_bufsize=78125 / nal_hrd=none / filler=0 / ip_ratio=1.40 / aq=1:1.00
Default                                  : Yes
Forced                                   : No

Audio
ID                                       : 2
Format                                   : FLAC
Format/Info                              : Free Lossless Audio Codec
Codec ID                                 : A_FLAC
Duration                                 : 1 h 28 min
Bit rate mode                            : Variable
Bit rate                                 : 556 kb/s
Channel(s)                               : 2 channels
Channel layout                           : L R
Sampling rate                            : 48.0 kHz
Frame rate                               : 10.417 FPS (4608 SPF)
Bit depth                                : 16 bits
Compression mode                         : Lossless
Stream size                              : 351 MiB (10%)
Writing library                          : Lavf58.29.100
Language                                 : English
Default                                  : Yes
Forced                                   : No

Menu
00:00:00.000                             : en:Chapter 01
00:11:20.430                             : en:Chapter 02
00:23:50.387                             : en:Chapter 03
00:37:53.062                             : en:Chapter 04
00:54:25.971                             : en:Chapter 05
01:06:55.220                             : en:Chapter 06
01:16:21.076                             : en:Chapter 07
01:25:29.124                             : en:Chapter 08


悠悠MP4_MP4电影下载_剥皮女魔 Skinner.1993.720p.BluRay.x264-SPOOKS 3.28GB


提示:如迅雷下载提示"任务出错"、"因版权无法下载",请尝试【迅雷5】
上传的附件:
最新回复 (0)
返回
本站所有资源均收集自互联网,没有提供影片资源存储, 也未参与录制、上传,若本站收录的资源无意侵犯了您的权益, 请联系邮箱:gogoimgs#gmail.com(#=@)