[2019] [欧美] [动作] [WEB-1080P] 疾速杀机 Acceleration.2019.1080p.AMZN.WEBRip.DDP5.1.x264-NTG 5.09GB

uump4 5天前 150

帖子完整标题:疾速杀机 Acceleration.2019.1080p.AMZN.WEBRip.DDP5.1.x264-NTG 5.09GB


悠悠MP4_MP4电影下载_疾速杀机 Acceleration.2019.1080p.AMZN.WEBRip.DDP5.1.x264-NTG 5.09GB

◎译  名 疾速杀机 / The Driver
◎片  名 Acceleration
◎年  代 2019
◎产  地 美国
◎类  别 动作 / 犯罪
◎语  言 英语
◎上映日期 2019-11-08(美国)
◎IMDb链接  https://www.imdb.com/title/tt9534808
◎豆瓣评分 0/10 from 0 users
◎豆瓣链接 https://movie.douban.com/subject/33397774/
◎片  长 85分钟
◎导  演 Michael Merino / Daniel Zirilli
◎编  剧 Michael Merino / Daniel Zirilli / 娜塔莉·伯恩 Natalie Burn
◎主  演 肖恩·派特里克·弗兰纳里 Sean Patrick Flanery
       杜夫·龙格尔 Dolph Lundgren
       查克·林德尔 Chuck Liddell
       娜塔莉·伯恩 Natalie Burn
       奎顿·杰克逊 Quinton 'Rampage' Jackson
       丹尼·特雷霍 Danny Trejo


◎简  介  

  暂无相关剧情介绍

Video
ID                                       : 1
Format                                   : AVC
Format/Info                              : Advanced Video Codec
Format profile                           : [email protected]
Format settings                          : CABAC / 4 Ref Frames
Format settings, CABAC                   : Yes
Format settings, Reference frames        : 4 frames
Codec ID                                 : V_MPEG4/ISO/AVC
Duration                                 : 1 h 25 min
Bit rate mode                            : Constant
Bit rate                                 : 7 914 kb/s
Nominal bit rate                         : 10 000 kb/s
Width                                    : 1 920 pixels
Height                                   : 1 080 pixels
Display aspect ratio                     : 16:9
Frame rate mode                          : Constant
Frame rate                               : 23.976 (24000/1001) FPS
Color space                              : YUV
Chroma subsampling                       : 4:2:0
Bit depth                                : 8 bits
Scan type                                : Progressive
Bits/(Pixel*Frame)                       : 0.159
Stream size                              : 4.71 GiB (92%)
Default                                  : Yes
Forced                                   : No
Color range                              : Limited
Color primaries                          : BT.709
Transfer characteristics                 : BT.709
Matrix coefficients                      : BT.709

Audio
ID                                       : 2
Format                                   : E-AC-3
Format/Info                              : Enhanced AC-3
Commercial name                          : Dolby Digital Plus
Codec ID                                 : A_EAC3
Duration                                 : 1 h 25 min
Bit rate mode                            : Constant
Bit rate                                 : 640 kb/s
Channel(s)                               : 6 channels
Channel layout                           : L R C LFE Ls Rs
Sampling rate                            : 48.0 kHz
Frame rate                               : 31.250 FPS (1536 SPF)
Compression mode                         : Lossy
Stream size                              : 390 MiB (7%)
Language                                 : English
Service kind                             : Complete Main
Default                                  : Yes
Forced                                   : No

Text #1
ID                                       : 3
Format                                   : UTF-8
Codec ID                                 : S_TEXT/UTF8
Codec ID/Info                            : UTF-8 Plain Text
Duration                                 : 1 h 23 min
Bit rate                                 : 47 b/s
Count of elements                        : 1001
Stream size                              : 28.8 KiB (0%)
Language                                 : English
Default                                  : No
Forced                                   : No

Text #2
ID                                       : 4
Format                                   : UTF-8
Codec ID                                 : S_TEXT/UTF8
Codec ID/Info                            : UTF-8 Plain Text
Duration                                 : 1 h 23 min
Bit rate                                 : 49 b/s
Count of elements                        : 1092
Stream size                              : 30.2 KiB (0%)
Title                                    : SDH
Language                                 : English
Default                                  : No
Forced                                   : No


悠悠MP4_MP4电影下载_疾速杀机 Acceleration.2019.1080p.AMZN.WEBRip.DDP5.1.x264-NTG 5.09GB悠悠MP4_MP4电影下载_疾速杀机 Acceleration.2019.1080p.AMZN.WEBRip.DDP5.1.x264-NTG 5.09GB悠悠MP4_MP4电影下载_疾速杀机 Acceleration.2019.1080p.AMZN.WEBRip.DDP5.1.x264-NTG 5.09GB


提示:如迅雷下载提示"任务出错"、"因版权无法下载",请尝试【迅雷5】
上传的附件:
最新回复 (0)
返回
本站所有资源均收集自互联网,没有提供影片资源存储, 也未参与录制、上传,若本站收录的资源无意侵犯了您的权益, 请联系邮箱:gogoimgs#gmail.com(#=@)