[2019] [欧美] [动作] [WEB-720P] 原始恐惧 Primal.2019.720p.AMZN.WEBRip.DDP5.1.x264-NTG 2.66GB

uump4 5天前 103

帖子完整标题:原始恐惧 Primal.2019.720p.AMZN.WEBRip.DDP5.1.x264-NTG 2.66GB


悠悠MP4_MP4电影下载_原始恐惧 Primal.2019.720p.AMZN.WEBRip.DDP5.1.x264-NTG 2.66GB

◎译  名 原始恐惧
◎片  名 Primal
◎年  代 2019
◎产  地 美国
◎类  别 动作
◎语  言 英语
◎上映日期 2019-11-08(美国)
◎IMDb评分  6.1/10 from 27 users
◎IMDb链接  https://www.imdb.com/title/tt7394816
◎豆瓣评分 0/10 from 0 users
◎豆瓣链接 https://movie.douban.com/subject/27139736/
◎导  演 尼克·鲍威尔 Nick Powell
◎编  剧 Richard Leder
◎主  演 尼古拉斯·凯奇 Nicolas Cage
       法米克·詹森 Famke Janssen
       凯文·杜兰 Kevin Durand
       迈克尔·因佩里奥利 Michael Imperioli
       拉莫尼卡·加瑞特 LaMonica Garrett
       雷·埃尔南德斯 Rey Hernandez
       汤姆·沃克 Tom Walker
       布赖恩·泰斯特 Brian Tester
       John Lewis
       Sewell Whitney
       Braulio Castillo hijo
       Joseph Oliveira
       Drake Shannon
       Sebastian Vázquez
       Jaime Irizarry


◎标  签 2019 | 动作 | 美国电影 | 尼古拉斯·凯奇 | 美国 | 法米克·詹森 | 好看

◎简  介  

  一位大型动物禁猎区的管理人Frank Walsh,他押运一艘载满了来自亚马逊、奇异又致命的大型动物的希腊运输船,其中包括一只极其罕见的白色美洲虎。不过致命的动物并不是船上最令人恐惧的生物,一支计划将一位政治暗杀杀手Richard Loffler偷渡去美国的小队也在船上。Loffler随后甩掉看管他的美国警官并放出了牢笼里的猛兽,使整艘船陷入极大的惶恐于混乱之中。Frank必须找出既不伤害动物也能保全船员安稳无恙的方法,同时还要提防疯狂的杀手。

Video
ID                                       : 1
Format                                   : AVC
Format/Info                              : Advanced Video Codec
Format profile                           : [email protected]
Format settings                          : CABAC / 4 Ref Frames
Format settings, CABAC                   : Yes
Format settings, Reference frames        : 4 frames
Codec ID                                 : V_MPEG4/ISO/AVC
Duration                                 : 1 h 36 min
Bit rate mode                            : Constant
Bit rate                                 : 3 294 kb/s
Nominal bit rate                         : 6 000 kb/s
Width                                    : 1 280 pixels
Height                                   : 544 pixels
Display aspect ratio                     : 2.35:1
Original display aspect ratio            : 2.35:1
Frame rate mode                          : Constant
Frame rate                               : 23.976 (24000/1001) FPS
Color space                              : YUV
Chroma subsampling                       : 4:2:0
Bit depth                                : 8 bits
Scan type                                : Progressive
Bits/(Pixel*Frame)                       : 0.197
Stream size                              : 2.23 GiB (84%)
Default                                  : Yes
Forced                                   : No
Color range                              : Limited
Color primaries                          : BT.709
Transfer characteristics                 : BT.709
Matrix coefficients                      : BT.709

Audio
ID                                       : 2
Format                                   : E-AC-3
Format/Info                              : Enhanced AC-3
Commercial name                          : Dolby Digital Plus
Codec ID                                 : A_EAC3
Duration                                 : 1 h 36 min
Bit rate mode                            : Constant
Bit rate                                 : 640 kb/s
Channel(s)                               : 6 channels
Channel layout                           : L R C LFE Ls Rs
Sampling rate                            : 48.0 kHz
Frame rate                               : 31.250 FPS (1536 SPF)
Compression mode                         : Lossy
Stream size                              : 443 MiB (16%)
Language                                 : English
Service kind                             : Complete Main
Default                                  : Yes
Forced                                   : No

Text #1
ID                                       : 3
Format                                   : UTF-8
Codec ID                                 : S_TEXT/UTF8
Codec ID/Info                            : UTF-8 Plain Text
Duration                                 : 1 h 29 min
Bit rate                                 : 50 b/s
Count of elements                        : 1191
Stream size                              : 32.7 KiB (0%)
Language                                 : English
Default                                  : No
Forced                                   : No

Text #2
ID                                       : 4
Format                                   : UTF-8
Codec ID                                 : S_TEXT/UTF8
Codec ID/Info                            : UTF-8 Plain Text
Duration                                 : 1 h 31 min
Bit rate                                 : 58 b/s
Count of elements                        : 1407
Stream size                              : 39.0 KiB (0%)
Title                                    : SDH
Language                                 : English
Default                                  : No
Forced                                   : No


悠悠MP4_MP4电影下载_原始恐惧 Primal.2019.720p.AMZN.WEBRip.DDP5.1.x264-NTG 2.66GB悠悠MP4_MP4电影下载_原始恐惧 Primal.2019.720p.AMZN.WEBRip.DDP5.1.x264-NTG 2.66GB悠悠MP4_MP4电影下载_原始恐惧 Primal.2019.720p.AMZN.WEBRip.DDP5.1.x264-NTG 2.66GB


提示:如迅雷下载提示"任务出错"、"因版权无法下载",请尝试【迅雷5】
上传的附件:
最新回复 (0)
返回
本站所有资源均收集自互联网,没有提供影片资源存储, 也未参与录制、上传,若本站收录的资源无意侵犯了您的权益, 请联系邮箱:gogoimgs#gmail.com(#=@)