[2015] [欧美] [其他] [WEB-720P] 剩女童话 Crown.For.Christmas.2015.720p.AMZN.WEBRip.DDP5.1.x264-ABM 3.99GB

uump4 5天前 78

帖子完整标题:剩女童话 Crown.For.Christmas.2015.720p.AMZN.WEBRip.DDP5.1.x264-ABM 3.99GB


悠悠MP4_MP4电影下载_剩女童话 Crown.For.Christmas.2015.720p.AMZN.WEBRip.DDP5.1.x264-ABM 3.99GB

◎译  名 剩女童话
◎片  名 Crown for Christmas
◎年  代 2015
◎产  地 美国
◎类  别 家庭 / 儿童
◎语  言 英语
◎上映日期 2015-11-15
◎IMDb评分  7.0/10 from 3177 users
◎IMDb链接  https://www.imdb.com/title/tt5133572
◎豆瓣评分 5.9/10 from 159 users
◎豆瓣链接 https://movie.douban.com/subject/26678791/
◎片  长 84分钟
◎导  演 亚历克斯·帕斯特尔 àlex Pastor
◎主  演 丹妮卡·麦凯拉 Danica McKellar
       鲁伯特·彭利-琼斯 Rupert Penry-Jones
       Alexandra Evans


◎标  签 爱情 | 美国 | 灰姑娘 | 美国电影 | 喜剧 | christmas | 浪漫 | 家庭

◎简  介  

  Allie,一个平凡的女佣,老了多年的老姑娘(Danica McKellar)实现了她的灰姑娘之梦……
  她在这个梦里与恶公主
  进行了精彩的宫斗。

Video
ID                                       : 1
Format                                   : AVC
Format/Info                              : Advanced Video Codec
Format profile                           : [email protected]
Format settings                          : CABAC / 4 Ref Frames
Format settings, CABAC                   : Yes
Format settings, Reference frames        : 4 frames
Codec ID                                 : V_MPEG4/ISO/AVC
Duration                                 : 1 h 26 min
Bit rate mode                            : Constant
Bit rate                                 : 6 000 kb/s
Width                                    : 1 280 pixels
Height                                   : 720 pixels
Display aspect ratio                     : 16:9
Frame rate mode                          : Constant
Frame rate                               : 23.976 (24000/1001) FPS
Color space                              : YUV
Chroma subsampling                       : 4:2:0
Bit depth                                : 8 bits
Scan type                                : Progressive
Bits/(Pixel*Frame)                       : 0.272
Stream size                              : 3.61 GiB (90%)
Language                                 : English
Default                                  : Yes
Forced                                   : No
Color range                              : Limited
Color primaries                          : BT.709
Transfer characteristics                 : BT.709
Matrix coefficients                      : BT.709

Audio
ID                                       : 2
Format                                   : E-AC-3
Format/Info                              : Enhanced AC-3
Commercial name                          : Dolby Digital Plus
Codec ID                                 : A_EAC3
Duration                                 : 1 h 26 min
Bit rate mode                            : Constant
Bit rate                                 : 640 kb/s
Channel(s)                               : 6 channels
Channel layout                           : L R C LFE Ls Rs
Sampling rate                            : 48.0 kHz
Frame rate                               : 31.250 FPS (1536 SPF)
Compression mode                         : Lossy
Stream size                              : 396 MiB (10%)
Language                                 : English
Service kind                             : Complete Main
Default                                  : Yes
Forced                                   : No

Text
ID                                       : 3
Format                                   : UTF-8
Codec ID                                 : S_TEXT/UTF8
Codec ID/Info                            : UTF-8 Plain Text
Duration                                 : 1 h 23 min
Bit rate                                 : 64 b/s
Count of elements                        : 1368
Stream size                              : 39.8 KiB (0%)
Language                                 : English
Default                                  : No
Forced                                   : No


悠悠MP4_MP4电影下载_剩女童话 Crown.For.Christmas.2015.720p.AMZN.WEBRip.DDP5.1.x264-ABM 3.99GB悠悠MP4_MP4电影下载_剩女童话 Crown.For.Christmas.2015.720p.AMZN.WEBRip.DDP5.1.x264-ABM 3.99GB悠悠MP4_MP4电影下载_剩女童话 Crown.For.Christmas.2015.720p.AMZN.WEBRip.DDP5.1.x264-ABM 3.99GB


提示:如迅雷下载提示"任务出错"、"因版权无法下载",请尝试【迅雷5】
上传的附件:
最新回复 (0)
返回
本站所有资源均收集自互联网,没有提供影片资源存储, 也未参与录制、上传,若本站收录的资源无意侵犯了您的权益, 请联系邮箱:gogoimgs#gmail.com(#=@)