[2009] [欧美] [恐怖] [BD-1080P] 黑色星期五/13号星期五 Friday.The.13th.2009.EXTENDED.1080p.BluRay.x264-Japhson 7.95GB

uump4 1月前 327

帖子完整标题:黑色星期五/13号星期五 Friday.The.13th.2009.EXTENDED.1080p.BluRay.x264-Japhson 7.95GB


悠悠MP4_MP4电影下载_黑色星期五/13号星期五 Friday.The.13th.2009.EXTENDED.1080p.BluRay.x264-Japhson 7.95GB

◎译  名 黑色星期五 / 13号星期五
◎片  名 Friday the 13th
◎年  代 2009
◎产  地 美国
◎类  别 恐怖
◎语  言 英语
◎上映日期 2009-02-13
◎IMDb评分  5.5/10 from 90914 users
◎IMDb链接  https://www.imdb.com/title/tt0758746
◎豆瓣评分 5.8/10 from 7622 users
◎豆瓣链接 https://movie.douban.com/subject/1914923/
◎片  长 97 分钟
◎导  演 Marcus Nispel
◎编  剧 Damian Shannon / Mark Swift
◎主  演 贾德·帕达里克 Jared Padalecki
       丹妮尔·帕娜贝克 Danielle Panabaker
       阿曼达·莱赫提 Amanda Righetti
       特拉维斯·范·文克 Travis Van Winkle
       艾伦·余 Aaron Yoo
       德里克·梅耶斯 Derek Mears
       乔纳森·萨多斯基 Jonathan Sadowski
       朱丽安娜·古尔 Julianna Guill
       本·费德曼 Ben Feldman
       亚伦·艾斯卡本塔 Arlen Escarpeta
       瑞恩·汉森 Ryan Hansen
       薇拉·福特 Willa Ford
       Nick Mennell
       阿美莉嘉·奥利沃 America Olivo
       凯尔·戴维斯 Kyle Davis


◎标  签 恐怖 | 惊悚 | 美国 | 血腥 | 杰森系列 | 2009 | 美国电影 | 恐怖电影

◎简  介  

  少女惠特妮?米勒(Amanda Righetti 饰)及其男友麦克(Nick Mennell 饰)等一行五人前往水晶湖森林游玩,快乐的假期很快为血腥杀戮所取代,躲藏在暗处的杀人魔王杰森(Derek Mears 饰)突然出现,将青年男女们逐一杀害。
  六周后,大学生特伦特(Travis Van Winkle 饰)及其一班朋友又来到水晶湖的小木屋内狂欢,他们偶遇寻找妹妹惠特妮的克雷(Jared Padalecki 饰)。虽然警方声称此地不见失踪人员身影,但克雷坚信妹妹必然身在丛林某处。与此同时,特伦特的两个朋友遭到杰森袭击,这群惶恐的大学生和克雷联合起来,共同面对身带血腥与杀戮气息的杰森……

◎获奖情况  

  第18届MTV电影奖(2009)
  MTV电影奖 最佳反派(提名) 德里克·梅耶斯

  第11届美国青少年选择奖(2009)
  最佳恐怖/惊悚电影

Video
ID                                       : 1
Format                                   : AVC
Format/Info                              : Advanced Video Codec
Format profile                           : [email protected]
Format settings, CABAC                   : Yes
Format settings, ReFrames                : 5 frames
Codec ID                                 : V_MPEG4/ISO/AVC
Duration                                 : 1 h 45 min
Bit rate                                 : 10.1 Mb/s
Width                                    : 1 920 pixels
Height                                   : 800 pixels
Display aspect ratio                     : 2.40:1
Frame rate mode                          : Constant
Frame rate                               : 23.976 FPS
Color space                              : YUV
Chroma subsampling                       : 4:2:0
Bit depth                                : 8 bits
Scan type                                : Progressive
Bits/(Pixel*Frame)                       : 0.275
Stream size                              : 7.32 GiB (92%)
Writing library                          : x264 core 67 r1165 6841c5e
Encoding settings                        : cabac=1 / ref=5 / deblock=1:-1:-1 / analyse=0x3:0x113 / me=umh / subme=7 / psy_rd=1.0:0.0 / mixed_ref=1 / me_range=16 / chroma_me=1 / trellis=2 / 8x8dct=1 / cqm=0 / deadzone=21,11 / chroma_qp_offset=-2 / threads=6 / nr=0 / decimate=1 / mbaff=0 / bframes=3 / b_pyramid=0 / b_adapt=2 / b_bias=0 / direct=3 / wpredb=1 / keyint=250 / keyint_min=25 / scenecut=40 / rc=2pass / bitrate=10125 / ratetol=1.0 / qcomp=0.60 / qpmin=10 / qpmax=51 / qpstep=4 / cplxblur=20.0 / qblur=0.5 / vbv_maxrate=50000 / vbv_bufsize=50000 / ip_ratio=1.40 / pb_ratio=1.30 / aq=1:1.00
Language                                 : English
Default                                  : Yes
Forced                                   : No

Audio
ID                                       : 2
Format                                   : AC-3
Format/Info                              : Audio Coding 3
Format settings, Endianness              : Big
Codec ID                                 : A_AC3
Duration                                 : 1 h 45 min
Bit rate mode                            : Constant
Bit rate                                 : 640 kb/s
Channel(s)                               : 6 channels
Channel positions                        : Front: L C R, Side: L R, LFE
Sampling rate                            : 48.0 kHz
Frame rate                               : 31.250 FPS (1536 spf)
Bit depth                                : 16 bits
Compression mode                         : Lossy
Stream size                              : 484 MiB (6%)
Language                                 : English
Service kind                             : Complete Main
Default                                  : Yes
Forced                                   : No


悠悠MP4_MP4电影下载_黑色星期五/13号星期五 Friday.The.13th.2009.EXTENDED.1080p.BluRay.x264-Japhson 7.95GB悠悠MP4_MP4电影下载_黑色星期五/13号星期五 Friday.The.13th.2009.EXTENDED.1080p.BluRay.x264-Japhson 7.95GB悠悠MP4_MP4电影下载_黑色星期五/13号星期五 Friday.The.13th.2009.EXTENDED.1080p.BluRay.x264-Japhson 7.95GB悠悠MP4_MP4电影下载_黑色星期五/13号星期五 Friday.The.13th.2009.EXTENDED.1080p.BluRay.x264-Japhson 7.95GB悠悠MP4_MP4电影下载_黑色星期五/13号星期五 Friday.The.13th.2009.EXTENDED.1080p.BluRay.x264-Japhson 7.95GB悠悠MP4_MP4电影下载_黑色星期五/13号星期五 Friday.The.13th.2009.EXTENDED.1080p.BluRay.x264-Japhson 7.95GB


提示:如迅雷下载提示"任务出错"、"因版权无法下载",请尝试【迅雷5】
上传的附件:
最新回复 (0)
返回
本站所有资源均收集自互联网,没有提供影片资源存储, 也未参与录制、上传,若本站收录的资源无意侵犯了您的权益, 请联系邮箱:gogoimgs#gmail.com(#=@)