[2019] [欧美] [其他] [BD-720P] 希思维尔:摩城唱片的诞生 Hitsville.The.Making.of.Motown.2019.720p.BluRay.x264-GHOULS 5.47GB

uump4 27天前 62

帖子完整标题:希思维尔:摩城唱片的诞生 Hitsville.The.Making.of.Motown.2019.720p.BluRay.x264-GHOULS 5.47GB


悠悠MP4_MP4电影下载_希思维尔:摩城唱片的诞生 Hitsville.The.Making.of.Motown.2019.720p.BluRay.x264-GHOULS 5.47GB

◎译  名 希思维尔:摩城唱片的诞生
◎片  名 Hitsville: The Making of Motown
◎年  代 2019
◎产  地 美国
◎类  别 纪录片 / 音乐
◎语  言 英语
◎上映日期 2019-08-24(美国)
◎IMDb评分  8.2/10 from 301 users
◎IMDb链接  https://www.imdb.com/title/tt6733446
◎豆瓣评分 0/10 from 0 users
◎豆瓣链接 https://movie.douban.com/subject/34809369/
◎片  长 112分钟
◎导  演 本杰明·特纳 Benjamin Turner / 盖布·特纳 Gabe Turner
◎主  演 伯瑞·高迪 Berry Gordy
       史摩基·罗宾逊 Smokey Robinson
       约翰·传奇 John Legend
       Lamont Dozier
       杰米·福克斯 Jamie Foxx


◎标  签 音乐 | 美国 | 纪录片 | 社会 | Showtime | Music | Documentary | 2019

◎简  介  

  Documentary film that focuses on the period beginning with the birth of Motown in Detroit in 1958 until its relocation to Los Angeles in the early 1970s.

Video
ID                                       : 1
Format                                   : AVC
Format/Info                              : Advanced Video Codec
Format profile                           : [email protected]
Format settings                          : CABAC / 9 Ref Frames
Format settings, CABAC                   : Yes
Format settings, Reference frames        : 9 frames
Codec ID                                 : V_MPEG4/ISO/AVC
Duration                                 : 1 h 51 min
Bit rate                                 : 5 475 kb/s
Width                                    : 1 280 pixels
Height                                   : 720 pixels
Display aspect ratio                     : 16:9
Frame rate mode                          : Constant
Frame rate                               : 23.976 (24000/1001) FPS
Color space                              : YUV
Chroma subsampling                       : 4:2:0
Bit depth                                : 8 bits
Scan type                                : Progressive
Bits/(Pixel*Frame)                       : 0.248
Stream size                              : 4.27 GiB (78%)
Writing library                          : x264 core 158 r2984 3759fcb
Encoding settings                        : cabac=1 / ref=9 / deblock=1:-3:-3 / analyse=0x3:0x133 / me=umh / subme=9 / psy=1 / psy_rd=1.00:0.00 / mixed_ref=1 / me_range=24 / chroma_me=1 / trellis=1 / 8x8dct=1 / cqm=0 / deadzone=21,11 / fast_pskip=0 / chroma_qp_offset=-2 / threads=22 / lookahead_threads=3 / sliced_threads=0 / nr=0 / decimate=1 / interlaced=0 / bluray_compat=0 / constrained_intra=0 / bframes=8 / b_pyramid=2 / b_adapt=2 / b_bias=0 / direct=3 / weightb=1 / open_gop=0 / weightp=2 / keyint=250 / keyint_min=23 / scenecut=40 / intra_refresh=0 / rc_lookahead=60 / rc=2pass / mbtree=1 / bitrate=5475 / ratetol=1.0 / qcomp=0.60 / qpmin=0 / qpmax=69 / qpstep=4 / cplxblur=20.0 / qblur=0.5 / vbv_maxrate=62500 / vbv_bufsize=78125 / nal_hrd=none / filler=0 / ip_ratio=1.40 / aq=1:1.00
Default                                  : Yes
Forced                                   : No

Audio
ID                                       : 2
Format                                   : DTS
Format/Info                              : Digital Theater Systems
Codec ID                                 : A_DTS
Duration                                 : 1 h 51 min
Bit rate mode                            : Constant
Bit rate                                 : 1 509 kb/s
Channel(s)                               : 6 channels
Channel layout                           : C L R Ls Rs LFE
Sampling rate                            : 48.0 kHz
Frame rate                               : 93.750 FPS (512 SPF)
Bit depth                                : 24 bits
Compression mode                         : Lossy
Stream size                              : 1.18 GiB (22%)
Language                                 : English
Default                                  : Yes
Forced                                   : No

Menu
00:00:00.000                             : en:Chapter 01
00:10:36.886                             : en:Chapter 02
00:21:25.576                             : en:Chapter 03
00:29:07.120                             : en:Chapter 04
00:39:00.922                             : en:Chapter 05
00:51:58.532                             : en:Chapter 06
01:03:15.208                             : en:Chapter 07
01:09:51.562                             : en:Chapter 08
01:19:22.508                             : en:Chapter 09
01:30:12.824                             : en:Chapter 10
01:38:08.382                             : en:Chapter 11
01:47:08.964                             : en:Chapter 12


悠悠MP4_MP4电影下载_希思维尔:摩城唱片的诞生 Hitsville.The.Making.of.Motown.2019.720p.BluRay.x264-GHOULS 5.47GB


提示:如迅雷下载提示"任务出错"、"因版权无法下载",请尝试【迅雷5】
上传的附件:
最新回复 (0)
返回
本站所有资源均收集自互联网,没有提供影片资源存储, 也未参与录制、上传,若本站收录的资源无意侵犯了您的权益, 请联系邮箱:gogoimgs#gmail.com(#=@)