[2012] [欧美] [剧情] [WEB-1080P] 厨神老爹 Trattoria.2012.1080p.WEBRip.x264-RARBG 1.53GB

uump4 27天前 102

帖子完整标题:厨神老爹 Trattoria.2012.1080p.WEBRip.x264-RARBG 1.53GB


悠悠MP4_MP4电影下载_厨神老爹 Trattoria.2012.1080p.WEBRip.x264-RARBG 1.53GB

◎译  名 厨神老爹
◎片  名 Trattoria
◎年  代 2012
◎产  地 美国
◎类  别 剧情
◎语  言 英语
◎IMDb评分 6.1/10 from 142 users
◎IMDb链接 https://www.imdb.com/title/tt1852154
◎豆瓣评分 0/10 from 0 users
◎豆瓣链接 https://movie.douban.com/subject/25742021/
◎片  长 82分钟
◎导  演 Jason Wolos
◎编  剧 Jason Wolos
◎主  演 安东尼·约翰·邓尼森 Tony Denison
      约翰·帕特里克·阿梅多利 John Patrick Amedori
      肯迪丝·埃里克森 Kandis Erickson


◎标  签 美食 | 剧情 | 美国 | 亲情 | 父子 | 2012 | 美国电影 | 肯迪丝·埃里克森

◎简  介

  萨尔是旧金山颇负盛名的大厨,他的厨艺精湛、脾气却有点火爆,尤其最近新开张的餐厅让他忙得天昏地暗,虽有离家多年的儿子文森回来帮忙,但父子俩在厨房总是争执不断,两人关系几乎降到了冰点。当文森决定再度离去,总把烹饪摆第一的萨尔终於意识到,或许人生不该只有食物而已。(http://www.kan84.net/bdhd/btTrattoria2012.html)
Video
ID : 1
Format : AVC
Format/Info : Advanced Video Codec
Format profile : [email protected]
Format settings : CABAC / 4 Ref Frames
Format settings, CABAC : Yes
Format settings, Reference frames : 4 frames
Codec ID : avc1
Codec ID/Info : Advanced Video Coding
Duration : 1 h 20 min
Bit rate : 2 500 kb/s
Width : 1 920 pixels
Height : 1 080 pixels
Display aspect ratio : 16:9
Frame rate mode : Constant
Frame rate : 23.976 (23976/1000) FPS
Color space : YUV
Chroma subsampling : 4:2:0
Bit depth : 8 bits
Scan type : Progressive
Bits/(Pixel*Frame) : 0.050
Stream size : 1.40 GiB (92%)
Writing library : x264 core 152 r2851M ba24899
Encoding settings : cabac=1 / ref=4 / deblock=1:-1:-1 / analyse=0x3:0x113 / me=umh / subme=9 / psy=1 / psy_rd=1.00:0.15 / mixed_ref=1 / me_range=24 / chroma_me=1 / trellis=2 / 8x8dct=1 / cqm=0 / deadzone=21,11 / fast_pskip=1 / chroma_qp_offset=-3 / threads=16 / lookahead_threads=4 / sliced_threads=0 / nr=0 / decimate=1 / interlaced=0 / bluray_compat=0 / constrained_intra=0 / bframes=3 / b_pyramid=2 / b_adapt=2 / b_bias=0 / direct=3 / weightb=1 / open_gop=0 / weightp=2 / keyint=250 / keyint_min=25 / scenecut=40 / intra_refresh=0 / rc_lookahead=50 / rc=2pass / mbtree=1 / bitrate=2500 / ratetol=1.0 / qcomp=0.60 / qpmin=0 / qpmax=69 / qpstep=4 / cplxblur=20.0 / qblur=0.5 / vbv_maxrate=31250 / vbv_bufsize=31250 / nal_hrd=none / filler=0 / ip_ratio=1.40 / aq=3:1.00
Encoded date : UTC 2019-10-16 15:58:39
Tagged date : UTC 2019-10-16 15:58:39
Codec configuration box : avcC

Audio
ID : 2
Format : AAC LC
Format/Info : Advanced Audio Codec Low Complexity
Codec ID : mp4a-40-2
Duration : 1 h 20 min
Bit rate mode : Constant
Bit rate : 224 kb/s
Channel(s) : 2 channels
Channel layout : L R
Sampling rate : 48.0 kHz
Frame rate : 46.875 FPS (1024 SPF)
Compression mode : Lossy
Stream size : 129 MiB (8%)
Language : English
Default : Yes
Alternate group : 1
Encoded date : UTC 2019-10-16 15:58:39
Tagged date : UTC 2019-10-16 15:58:39

悠悠MP4_MP4电影下载_厨神老爹 Trattoria.2012.1080p.WEBRip.x264-RARBG 1.53GB悠悠MP4_MP4电影下载_厨神老爹 Trattoria.2012.1080p.WEBRip.x264-RARBG 1.53GB悠悠MP4_MP4电影下载_厨神老爹 Trattoria.2012.1080p.WEBRip.x264-RARBG 1.53GB


提示:如迅雷下载提示"任务出错"、"因版权无法下载",请尝试【迅雷5】
上传的附件:
最新回复 (0)
返回
本站所有资源均收集自互联网,没有提供影片资源存储, 也未参与录制、上传,若本站收录的资源无意侵犯了您的权益, 请联系邮箱:gogoimgs#gmail.com(#=@)