[更早] [欧美] [剧情] [BD-Remux] 罗伦佐的油/再生之旅 Lorenzos.Oil.1992.1080p.BluRay.REMUX.AVC.LPCM.2.0-FGT 18.45GB

uump4 12天前 287

帖子完整标题:罗伦佐的油/再生之旅 Lorenzos.Oil.1992.1080p.BluRay.REMUX.AVC.LPCM.2.0-FGT 18.45GB


悠悠MP4_MP4电影下载_罗伦佐的油/再生之旅 Lorenzos.Oil.1992.1080p.BluRay.REMUX.AVC.LPCM.2.0-FGT 18.45GB

◎译  名 罗伦佐的油 / 再生之旅 / 洛伦佐的油剂
◎片  名 Lorenzo's Oil
◎年  代 1992
◎产  地 美国
◎类  别 剧情
◎语  言 英语 / 意大利语
◎上映日期 1993-01-15
◎IMDb评分 7.3/10 from 19198 users
◎IMDb链接 http://www.imdb.com/title/tt0104756
◎豆瓣评分 8.5/10 from 1246 users
◎豆瓣链接 https://movie.douban.com/subject/1293497/
◎片  长 136分钟
◎导  演 乔治·米勒 George Miller
◎编  剧 乔治·米勒 George Miller / Nick Enright
◎主  演 尼克·诺特 Nick Nolte
      苏珊·萨兰登 Susan Sarandon
      彼得·乌斯蒂诺夫 Peter Ustinov


◎标  签 美国 | 亲情 | 家庭 | 美国电影 | 剧情 | 爱的力量 | 感动 | 1992

◎简  介

  1984年,奥登夫妇的六岁儿子罗伦佐患上罕见的ALD(肾上腺白质退化)症,这是医生宣布为无药可治的绝症。但奥登夫妇均不肯放弃希望,以各种方法挑战医学界的不足,并发明了一种特殊配方的油给罗伦佐食用,终于从死亡边缘把他给救了回来,并且造福了其它同患此病症的患病家属。

◎获奖情况

  第65届奥斯卡金像奖(1993)
  最佳女主角(提名) 苏珊·萨兰登
  最佳原创剧本(提名) 尼克·恩莱特 / 乔治·米勒
Video
ID : 1
Format : AVC
Format/Info : Advanced Video Codec
Format profile : [email protected]
Format settings : CABAC / 4 Ref Frames
Format settings, CABAC : Yes
Format settings, Reference frames : 4 frames
Codec ID : V_MPEG4/ISO/AVC
Duration : 2 h 15 min
Bit rate mode : Variable
Bit rate : 18.0 Mb/s
Maximum bit rate : 35.0 Mb/s
Width : 1 920 pixels
Height : 1 080 pixels
Display aspect ratio : 16:9
Frame rate mode : Constant
Frame rate : 23.976 (24000/1001) FPS
Standard : NTSC
Color space : YUV
Chroma subsampling : 4:2:0
Bit depth : 8 bits
Scan type : Progressive
Bits/(Pixel*Frame) : 0.362
Stream size : 17.0 GiB (92%)
Title : Lorenzos.Oil.1992.1080p.BluRay.REMUX.AVC.LPCM.2.0-FGT
Language : English
Default : No
Forced : No
Color range : Limited
Color primaries : BT.709
Transfer characteristics : BT.709
Matrix coefficients : BT.709

Audio
ID : 2
Format : PCM
Format settings : Little / Signed
Codec ID : A_PCM/INT/LIT
Duration : 2 h 15 min
Bit rate mode : Constant
Bit rate : 1 536 kb/s
Channel(s) : 2 channels
Sampling rate : 48.0 kHz
Frame rate : 30.000 FPS (1600 SPF)
Bit depth : 16 bits
Stream size : 1.45 GiB (8%)
Title : Lorenzos.Oil.1992.1080p.BluRay.REMUX.AVC.LPCM.2.0-FGT
Language : English
Default : Yes
Forced : No

Text #1
ID : 3
Format : UTF-8
Codec ID : S_TEXT/UTF8
Codec ID/Info : UTF-8 Plain Text
Duration : 2 h 10 min
Bit rate : 68 b/s
Count of elements : 1442
Stream size : 65.7 KiB (0%)
Title : English-SRT
Language : English
Default : Yes
Forced : No

Text #2
ID : 4
Format : UTF-8
Codec ID : S_TEXT/UTF8
Codec ID/Info : UTF-8 Plain Text
Duration : 2 h 10 min
Bit rate : 70 b/s
Count of elements : 1490
Stream size : 68.0 KiB (0%)
Title : English-SDH-SRT
Language : English
Default : No
Forced : No

Menu
00:00:00.000 : en:Chapter 01
00:05:13.938 : en:Chapter 02
00:10:46.729 : en:Chapter 03
00:21:24.825 : en:Chapter 04
00:28:55.734 : en:Chapter 05
00:39:41.712 : en:Chapter 06
00:51:54.986 : en:Chapter 07
00:59:00.078 : en:Chapter 08
01:05:26.756 : en:Chapter 09
01:12:41.023 : en:Chapter 10
01:22:29.945 : en:Chapter 11
01:31:19.974 : en:Chapter 12
01:45:32.784 : en:Chapter 13
01:54:13.513 : en:Chapter 14
02:06:29.790 : en:Chapter 15
02:11:52.613 : en:Chapter 16

悠悠MP4_MP4电影下载_罗伦佐的油/再生之旅 Lorenzos.Oil.1992.1080p.BluRay.REMUX.AVC.LPCM.2.0-FGT 18.45GB悠悠MP4_MP4电影下载_罗伦佐的油/再生之旅 Lorenzos.Oil.1992.1080p.BluRay.REMUX.AVC.LPCM.2.0-FGT 18.45GB悠悠MP4_MP4电影下载_罗伦佐的油/再生之旅 Lorenzos.Oil.1992.1080p.BluRay.REMUX.AVC.LPCM.2.0-FGT 18.45GB


提示:如迅雷下载提示"任务出错"、"因版权无法下载",请尝试【迅雷5】
上传的附件:
最新回复 (0)
返回
本站所有资源均收集自互联网,没有提供影片资源存储, 也未参与录制、上传,若本站收录的资源无意侵犯了您的权益, 请联系邮箱:gogoimgs#gmail.com(#=@)