[更早] [欧美] [剧情] [BD-Remux] 地下世界/下层社会 Underworld.1927.1080p.BluRay.REMUX.AVC.LPCM.2.0-FGT 21.45GB

uump4 12天前 309

帖子完整标题:地下世界/下层社会 Underworld.1927.1080p.BluRay.REMUX.AVC.LPCM.2.0-FGT 21.45GB


悠悠MP4_MP4电影下载_地下世界/下层社会 Underworld.1927.1080p.BluRay.REMUX.AVC.LPCM.2.0-FGT 21.45GB

◎译  名 地下世界 / 下层社会 / 帑暗之街 / 黑社会
◎片  名 Underworld
◎年  代 1927
◎产  地 美国
◎类  别 剧情 / 犯罪
◎语  言 无对白
◎上映日期 1927-08-20
◎IMDb评分  7.6/10 from 2264 users
◎IMDb链接  http://www.imdb.com/title/tt0018526
◎豆瓣评分 7.9/10 from 316 users
◎豆瓣链接 https://movie.douban.com/subject/1303347/
◎片  长 80 分钟
◎导  演 Josef von Sternberg
◎编  剧 Charles Furthman / Robert N. Lee
◎主  演 George Bancroft
       Evelyn Brent
       Clive Brook
       Fred Kohler
       Helen Lynch


◎标  签 美国 | 默片 | 约瑟夫·冯·斯登堡 | 犯罪 | 1927 | 1920s | CC | 美国电影

◎简  介  

  依据1922年的凶杀案改编,描写贩卖私酒的匪帮和警方角力的故事。影史第一次以盗匪当主角,运用背面打光和烟雾,颇具艺术风格,广受欢迎,也预示40年代黑色电影的来临。

◎获奖情况  

  第1届奥斯卡金像奖(1929)
  最佳原创故事 本·赫克特

Video
ID                                       : 1
Format                                   : AVC
Format/Info                              : Advanced Video Codec
Format profile                           : [email protected]
Format settings                          : CABAC / 4 Ref Frames
Format settings, CABAC                   : Yes
Format settings, Reference frames        : 4 frames
Format settings, GOP                     : M=3, N=12
Codec ID                                 : V_MPEG4/ISO/AVC
Duration                                 : 1 h 21 min
Bit rate mode                            : Variable
Bit rate                                 : 35.4 Mb/s
Maximum bit rate                         : 37.0 Mb/s
Width                                    : 1 920 pixels
Height                                   : 1 080 pixels
Display aspect ratio                     : 16:9
Frame rate mode                          : Constant
Frame rate                               : 23.976 (24000/1001) FPS
Color space                              : YUV
Chroma subsampling                       : 4:2:0
Bit depth                                : 8 bits
Scan type                                : Progressive
Bits/(Pixel*Frame)                       : 0.711
Stream size                              : 20.1 GiB (94%)
Title                                    : Underworld.1927.1080p.BluRay.REMUX.AVC.LPCM.2.0-FGT
Language                                 : English
Default                                  : No
Forced                                   : No

Audio
ID                                       : 2
Format                                   : PCM
Format settings                          : Little / Signed
Codec ID                                 : A_PCM/INT/LIT
Duration                                 : 1 h 21 min
Bit rate mode                            : Constant
Bit rate                                 : 2 304 kb/s
Channel(s)                               : 2 channels
Sampling rate                            : 48.0 kHz
Frame rate                               : 30.000 FPS (1600 SPF)
Bit depth                                : 24 bits
Stream size                              : 1.31 GiB (6%)
Title                                    : Underworld.1927.1080p.BluRay.REMUX.AVC.LPCM.2.0-FGT
Language                                 : English
Default                                  : Yes
Forced                                   : No

Menu
00:00:00.000                             : en:Chapter 01
00:01:21.081                             : en:Chapter 02
00:04:25.265                             : en:Chapter 03
00:14:21.569                             : en:Chapter 04
00:16:44.420                             : en:Chapter 05
00:18:44.123                             : en:Chapter 06
00:25:06.505                             : en:Chapter 07
00:26:52.694                             : en:Chapter 08
00:31:48.698                             : en:Chapter 09
00:39:38.751                             : en:Chapter 10
00:44:41.053                             : en:Chapter 11
00:48:27.779                             : en:Chapter 12
00:56:54.994                             : en:Chapter 13
01:03:47.198                             : en:Chapter 14
01:09:40.134                             : en:Chapter 15
01:14:27.504                             : en:Chapter 16


悠悠MP4_MP4电影下载_地下世界/下层社会 Underworld.1927.1080p.BluRay.REMUX.AVC.LPCM.2.0-FGT 21.45GB悠悠MP4_MP4电影下载_地下世界/下层社会 Underworld.1927.1080p.BluRay.REMUX.AVC.LPCM.2.0-FGT 21.45GB悠悠MP4_MP4电影下载_地下世界/下层社会 Underworld.1927.1080p.BluRay.REMUX.AVC.LPCM.2.0-FGT 21.45GB


提示:如迅雷下载提示"任务出错"、"因版权无法下载",请尝试【迅雷5】
上传的附件:
最新回复 (0)
返回
本站所有资源均收集自互联网,没有提供影片资源存储, 也未参与录制、上传,若本站收录的资源无意侵犯了您的权益, 请联系邮箱:gogoimgs#gmail.com(#=@)