[更早] [欧美] [剧情] [BD-Remux] 最后命令 The.Last.Command.1928.CRITERION.1080p.BluRay.REMUX.AVC.LPCM.2.0-FGT 24.84GB

uump4 12天前 275

帖子完整标题:最后命令 The.Last.Command.1928.CRITERION.1080p.BluRay.REMUX.AVC.LPCM.2.0-FGT 24.84GB


悠悠MP4_MP4电影下载_最后命令 The.Last.Command.1928.CRITERION.1080p.BluRay.REMUX.AVC.LPCM.2.0-FGT 24.84GB

◎译  名 最后命令
◎片  名 The Last Command
◎年  代 1928
◎产  地 美国
◎类  别 剧情 / 冒险
◎语  言 英语
◎上映日期 1928-01-22(美国) / 1928-09-24(芬兰)
◎IMDb评分 8.0/10 from 3001 users
◎IMDb链接 http://www.imdb.com/title/tt0019071
◎豆瓣评分 8.4/10 from 374 users
◎豆瓣链接 https://movie.douban.com/subject/1292539/
◎片  长 85分钟(德国)
◎导  演 约瑟夫·冯·斯坦伯格 Josef von Sternberg
◎编  剧 John F. Goodrich / Herman J. Mankiewicz / Lajos Biró
◎主  演 Emil Jannings
      Evelyn Brent
      William Powell


◎标  签 美国 | 默片 | 约瑟夫·冯·斯登堡 | 1928 | 1920s | CC | Josef_von_Sternberg | JosefvonSternberg

◎简  介

  一个临时演员被召去在一部关于俄国革命的电影中扮演一名将军,然而,他并不是一位普通的临时演员,他就是谢尔盖·亚历山大,尼古拉斯沙皇时期的一位前将军。他在1917年共产主义革命后从俄国军队里逃到了好莱坞。现在,为了使电影的导演,一个也曾参加过俄国革命的人满意,他被迫要去重新 经历那一段曾带给他无穷苦痛的生活。这一次,这个倒霉的将军有机会去“赢得”那曾经一败涂地的战役。电影闪回到亚历山大在俄战中的艰难生活。他感到无论他怎样努力,似乎都无法阻止历史的车轮滚滚向前。但是有一个女孩理解他,因为他的强烈的爱国精神和正派的行为,这个女孩爱上了他……

◎获奖情况

  第1届奥斯卡金像奖(1929)
  最佳男主角 埃米尔·雅宁斯
  最佳原创故事(提名) 拉约什·比罗
Video
ID : 1
Format : AVC
Format/Info : Advanced Video Codec
Format profile : [email protected]
Format settings : CABAC / 4 Ref Frames
Format settings, CABAC : Yes
Format settings, Reference frames : 4 frames
Format settings, GOP : M=3, N=12
Codec ID : V_MPEG4/ISO/AVC
Duration : 1 h 28 min
Bit rate mode : Variable
Bit rate : 35.5 Mb/s
Maximum bit rate : 37.0 Mb/s
Width : 1 920 pixels
Height : 1 080 pixels
Display aspect ratio : 16:9
Frame rate mode : Constant
Frame rate : 23.976 (24000/1001) FPS
Color space : YUV
Chroma subsampling : 4:2:0
Bit depth : 8 bits
Scan type : Progressive
Bits/(Pixel*Frame) : 0.714
Stream size : 22.0 GiB (89%)
Title : The.Last.Command.1928.1080p.BluRay.REMUX.AVC.LPCM.2.0-FGT
Language : English
Default : No
Forced : No

Audio #1
ID : 2
Format : PCM
Format settings : Little / Signed
Codec ID : A_PCM/INT/LIT
Duration : 1 h 28 min
Bit rate mode : Constant
Bit rate : 2 304 kb/s
Channel(s) : 2 channels
Sampling rate : 48.0 kHz
Frame rate : 30.000 FPS (1600 SPF)
Bit depth : 24 bits
Stream size : 1.43 GiB (6%)
Title : The.Last.Command.1928.1080p.BluRay.REMUX.AVC.LPCM.2.0-FGT
Language : English
Default : Yes
Forced : No

Audio #2
ID : 3
Format : PCM
Format settings : Little / Signed
Codec ID : A_PCM/INT/LIT
Duration : 1 h 28 min
Bit rate mode : Constant
Bit rate : 2 304 kb/s
Channel(s) : 2 channels
Sampling rate : 48.0 kHz
Frame rate : 30.000 FPS (1600 SPF)
Bit depth : 24 bits
Stream size : 1.43 GiB (6%)
Title : The.Last.Command.1928.1080p.BluRay.REMUX.AVC.LPCM.2.0-FGT
Language : English
Default : No
Forced : No

Menu
00:00:00.000 : en:Chapter 01
00:01:13.156 : en:Chapter 02
00:04:04.744 : en:Chapter 03
00:12:11.147 : en:Chapter 04
00:17:29.256 : en:Chapter 05
00:22:54.039 : en:Chapter 06
00:28:43.471 : en:Chapter 07
00:34:21.476 : en:Chapter 08
00:40:25.131 : en:Chapter 09
00:49:00.604 : en:Chapter 10
00:54:26.638 : en:Chapter 11
01:02:41.132 : en:Chapter 12
01:10:07.661 : en:Chapter 13
01:14:46.398 : en:Chapter 14
01:22:06.588 : en:Chapter 15

悠悠MP4_MP4电影下载_最后命令 The.Last.Command.1928.CRITERION.1080p.BluRay.REMUX.AVC.LPCM.2.0-FGT 24.84GB悠悠MP4_MP4电影下载_最后命令 The.Last.Command.1928.CRITERION.1080p.BluRay.REMUX.AVC.LPCM.2.0-FGT 24.84GB悠悠MP4_MP4电影下载_最后命令 The.Last.Command.1928.CRITERION.1080p.BluRay.REMUX.AVC.LPCM.2.0-FGT 24.84GB


提示:如迅雷下载提示"任务出错"、"因版权无法下载",请尝试【迅雷5】
上传的附件:
最新回复 (0)
返回
本站所有资源均收集自互联网,没有提供影片资源存储, 也未参与录制、上传,若本站收录的资源无意侵犯了您的权益, 请联系邮箱:gogoimgs#gmail.com(#=@)