[2019] [欧美] [其他] [BD-Remux] 朽木/化外国度电影版 Deadwood.The.Movie.2019.1080p.BluRay.REMUX.AVC.DTS-HD.MA.5.1-FGT 19.5

uump4 6天前 246

帖子完整标题:朽木/化外国度电影版 Deadwood.The.Movie.2019.1080p.BluRay.REMUX.AVC.DTS-HD.MA.5.1-FGT 19.50GB


悠悠MP4_MP4电影下载_朽木/化外国度电影版 Deadwood.The.Movie.2019.1080p.BluRay.REMUX.AVC.DTS-HD.MA.5.1-FGT 19.5

◎译  名 朽木 / 化外国度电影版(台) / 无法无天大电影(港)
◎片  名 Deadwood
◎年  代 2019
◎产  地 美国
◎类  别 西部
◎语  言 英语
◎上映日期 2019-05-31(美国)
◎IMDb评分  9.3/10 from 397 users
◎IMDb链接  http://www.imdb.com/title/tt4943998
◎豆瓣评分 0/10 from 0 users
◎豆瓣链接 https://movie.douban.com/subject/27164161/
◎导  演 丹尼尔·米纳汉 Daniel Minahan
◎编  剧 大卫·米尔契 David Milch
◎主  演 伊恩·麦柯肖恩 Ian McShane
      蒂莫西·奥利芬特 Timothy Olyphant
      金·迪肯斯 Kim Dickens
      布拉德·道里夫 Brad Dourif
      莫莉·帕克 Molly Parker
      肖恩·布里吉格斯 Sean Bridgers
      罗宾·薇格特 Robin Weigert
      安娜·冈 Anna Gunn
      葆拉·马尔科姆森 Paula Malcomson
      杰弗瑞·琼斯 Jeffrey Jones
      托尼·库兰 Tony Curran
      约翰·浩克斯 John Hawkes
      杰拉尔德·麦克雷尼 Gerald McRaney
      W·厄尔·布朗 W. Earl Brown
      威廉·桑德森 William Sanderson
      戴顿·考利 Dayton Callie
      杰德·佩蒂约翰 Jade Pettyjohn
      Geri Jewell
      基内·扬 Keone Young
      Franklyn Ajaye
      Jerry Cantrell
      伊戈·米基塔斯 Ego Mikitas
      范·埃佩尔森 Van Epperson
      哈尔·戴恩 Hal Dion


◎标  签 西部 | 美国 | HBO | 2019 | TimothyOlyphant | 美国电影 | 电影 | 这是我最爱的西部片

◎简  介  

  HBO正式宣布电影版[朽木]将于10月开机,有望明春播出。去年便已传出《朽木》编剧大卫·米尔契已完成了电影版剧本。剧版于2004年至2006年播出了三季,但粉丝始终没有迎来最终的大结局,该剧故事围绕美国疆界之外的一个矿镇展开。此前有消息称原剧众卡司均有望回归,包括伊恩·麦柯肖恩、蒂莫西·奥利芬特、约翰·浩克斯、莫莉·帕克、布拉德·道里夫等。

Video
ID                                       : 1
Format                                   : AVC
Format/Info                              : Advanced Video Codec
Format profile                           : [email protected]
Format settings                          : CABAC / 4 Ref Frames
Format settings, CABAC                   : Yes
Format settings, Reference frames        : 4 frames
Format settings, GOP                     : M=1, N=12
Codec ID                                 : V_MPEG4/ISO/AVC
Duration                                 : 1 h 50 min
Bit rate mode                            : Variable
Bit rate                                 : 20.4 Mb/s
Maximum bit rate                         : 35.0 Mb/s
Width                                    : 1 920 pixels
Height                                   : 1 080 pixels
Display aspect ratio                     : 16:9
Frame rate mode                          : Constant
Frame rate                               : 23.976 (24000/1001) FPS
Color space                              : YUV
Chroma subsampling                       : 4:2:0
Bit depth                                : 8 bits
Scan type                                : Progressive
Bits/(Pixel*Frame)                       : 0.410
Stream size                              : 15.7 GiB (80%)
Title                                    : Deadwood.The.Movie.2019.1080p.BluRay.REMUX.AVC.DTS-HD.MA.5.1-FGT
Language                                 : English
Default                                  : No
Forced                                   : No

Audio #1
ID                                       : 2
Format                                   : DTS XLL
Format/Info                              : Digital Theater Systems
Commercial name                          : DTS-HD Master Audio
Codec ID                                 : A_DTS
Duration                                 : 1 h 50 min
Bit rate mode                            : Variable
Bit rate                                 : 3 361 kb/s
Channel(s)                               : 6 channels
Channel layout                           : C L R Ls Rs LFE
Sampling rate                            : 48.0 kHz
Frame rate                               : 93.750 FPS (512 SPF)
Bit depth                                : 24 bits
Compression mode                         : Lossless
Stream size                              : 2.58 GiB (13%)
Title                                    : Deadwood.The.Movie.2019.1080p.BluRay.REMUX.AVC.DTS-HD.MA.5.1-FGT
Language                                 : English
Default                                  : Yes
Forced                                   : No

Audio #2
ID                                       : 3
Format                                   : DTS
Format/Info                              : Digital Theater Systems
Codec ID                                 : A_DTS
Duration                                 : 1 h 50 min
Bit rate mode                            : Constant
Bit rate                                 : 768 kb/s
Channel(s)                               : 6 channels
Channel layout                           : C L R Ls Rs LFE
Sampling rate                            : 48.0 kHz
Frame rate                               : 93.750 FPS (512 SPF)
Bit depth                                : 24 bits
Compression mode                         : Lossy
Stream size                              : 605 MiB (3%)
Title                                    : Deadwood.The.Movie.2019.1080p.BluRay.REMUX.AVC.DTS-HD.MA.5.1-FGT
Language                                 : French
Default                                  : No
Forced                                   : No

Audio #3
ID                                       : 4
Format                                   : DTS
Format/Info                              : Digital Theater Systems
Codec ID                                 : A_DTS
Duration                                 : 1 h 50 min
Bit rate mode                            : Constant
Bit rate                                 : 768 kb/s
Channel(s)                               : 2 channels
Channel layout                           : Lt Rt
Sampling rate                            : 48.0 kHz
Frame rate                               : 93.750 FPS (512 SPF)
Bit depth                                : 24 bits
Compression mode                         : Lossy
Stream size                              : 605 MiB (3%)
Title                                    : Deadwood.The.Movie.2019.1080p.BluRay.REMUX.AVC.DTS-HD.MA.5.1-FGT
Language                                 : Spanish
Default                                  : No
Forced                                   : No

Text #1
ID                                       : 5
Format                                   : UTF-8
Codec ID                                 : S_TEXT/UTF8
Codec ID/Info                            : UTF-8 Plain Text
Duration                                 : 1 h 45 min
Bit rate                                 : 52 b/s
Count of elements                        : 1272
Stream size                              : 40.7 KiB (0%)
Title                                    : English-SRT
Language                                 : English
Default                                  : Yes
Forced                                   : No

Text #2
ID                                       : 6
Format                                   : PGS
Muxing mode                              : zlib
Codec ID                                 : S_HDMV/PGS
Codec ID/Info                            : Picture based subtitle format used on BDs/HD-DVDs
Duration                                 : 1 h 45 min
Bit rate                                 : 36.3 kb/s
Count of elements                        : 2761
Stream size                              : 27.4 MiB (0%)
Title                                    : English-PGS
Language                                 : English
Default                                  : No
Forced                                   : No

Text #3
ID                                       : 7
Format                                   : PGS
Muxing mode                              : zlib
Codec ID                                 : S_HDMV/PGS
Codec ID/Info                            : Picture based subtitle format used on BDs/HD-DVDs
Duration                                 : 1 h 49 min
Bit rate                                 : 31.2 kb/s
Count of elements                        : 2544
Stream size                              : 24.5 MiB (0%)
Title                                    : French-PGS
Language                                 : French
Default                                  : No
Forced                                   : No

Text #4
ID                                       : 8
Format                                   : PGS
Muxing mode                              : zlib
Codec ID                                 : S_HDMV/PGS
Codec ID/Info                            : Picture based subtitle format used on BDs/HD-DVDs
Duration                                 : 1 h 47 min
Bit rate                                 : 58 b/s
Count of elements                        : 4
Stream size                              : 46.2 KiB (0%)
Title                                    : French-FORCED-PGS
Language                                 : French
Default                                  : No
Forced                                   : No

Text #5
ID                                       : 9
Format                                   : PGS
Muxing mode                              : zlib
Codec ID                                 : S_HDMV/PGS
Codec ID/Info                            : Picture based subtitle format used on BDs/HD-DVDs
Duration                                 : 1 h 45 min
Bit rate                                 : 33.5 kb/s
Count of elements                        : 2496
Stream size                              : 25.2 MiB (0%)
Title                                    : Spanish-PGS
Language                                 : Spanish
Default                                  : No
Forced                                   : No

Text #6
ID                                       : 10
Format                                   : PGS
Muxing mode                              : zlib
Codec ID                                 : S_HDMV/PGS
Codec ID/Info                            : Picture based subtitle format used on BDs/HD-DVDs
Duration                                 : 23 min 37 s
Bit rate                                 : 204 b/s
Count of elements                        : 4
Stream size                              : 35.4 KiB (0%)
Title                                    : Spanish-FORCED-PGS
Language                                 : Spanish
Default                                  : No
Forced                                   : No

Text #7
ID                                       : 11
Format                                   : PGS
Muxing mode                              : zlib
Codec ID                                 : S_HDMV/PGS
Codec ID/Info                            : Picture based subtitle format used on BDs/HD-DVDs
Duration                                 : 1 h 45 min
Bit rate                                 : 27.0 kb/s
Count of elements                        : 1766
Stream size                              : 20.3 MiB (0%)
Title                                    : Danish-PGS
Language                                 : Danish
Default                                  : No
Forced                                   : No

Text #8
ID                                       : 12
Format                                   : PGS
Muxing mode                              : zlib
Codec ID                                 : S_HDMV/PGS
Codec ID/Info                            : Picture based subtitle format used on BDs/HD-DVDs
Duration                                 : 1 h 45 min
Bit rate                                 : 29.3 kb/s
Count of elements                        : 1956
Stream size                              : 22.0 MiB (0%)
Title                                    : Finnish-PGS
Language                                 : Finnish
Default                                  : No
Forced                                   : No

Text #9
ID                                       : 13
Format                                   : PGS
Muxing mode                              : zlib
Codec ID                                 : S_HDMV/PGS
Codec ID/Info                            : Picture based subtitle format used on BDs/HD-DVDs
Duration                                 : 1 h 45 min
Bit rate                                 : 28.9 kb/s
Count of elements                        : 1924
Stream size                              : 21.7 MiB (0%)
Title                                    : Norwegian-PGS
Language                                 : Norwegian
Default                                  : No
Forced                                   : No

Text #10
ID                                       : 14
Format                                   : PGS
Muxing mode                              : zlib
Codec ID                                 : S_HDMV/PGS
Codec ID/Info                            : Picture based subtitle format used on BDs/HD-DVDs
Duration                                 : 1 h 45 min
Bit rate                                 : 30.6 kb/s
Count of elements                        : 1886
Stream size                              : 23.0 MiB (0%)
Title                                    : Swedish-PGS
Language                                 : Swedish
Default                                  : No
Forced                                   : No

Menu
00:00:00.000                             : en:Chapter 01
00:00:26.901                             : en:Chapter 02
00:11:09.043                             : en:Chapter 03
00:22:47.449                             : en:Chapter 04
00:32:06.633                             : en:Chapter 05
00:41:57.097                             : en:Chapter 06
00:50:17.889                             : en:Chapter 07
01:00:54.525                             : en:Chapter 08
01:11:53.058                             : en:Chapter 09
01:20:38.834                             : en:Chapter 10
01:28:02.277                             : en:Chapter 11
01:38:01.292                             : en:Chapter 12
01:45:58.810                             : en:Chapter 13


悠悠MP4_MP4电影下载_朽木/化外国度电影版 Deadwood.The.Movie.2019.1080p.BluRay.REMUX.AVC.DTS-HD.MA.5.1-FGT 19.5悠悠MP4_MP4电影下载_朽木/化外国度电影版 Deadwood.The.Movie.2019.1080p.BluRay.REMUX.AVC.DTS-HD.MA.5.1-FGT 19.5悠悠MP4_MP4电影下载_朽木/化外国度电影版 Deadwood.The.Movie.2019.1080p.BluRay.REMUX.AVC.DTS-HD.MA.5.1-FGT 19.5


提示:如迅雷下载提示"任务出错"、"因版权无法下载",请尝试【迅雷5】
上传的附件:
最新回复 (0)
返回
本站所有资源均收集自互联网,没有提供影片资源存储, 也未参与录制、上传,若本站收录的资源无意侵犯了您的权益, 请联系邮箱:gogoimgs#gmail.com(#=@)