[更早] [欧美] [剧情] [BD-1080P] 汤姆叔叔的小屋/黑奴吁天录 Uncle.Toms.Cabin.1927.1080p.BluRay.x264.DTS-FGT 10.38GB

uump4 12天前 282

帖子完整标题:汤姆叔叔的小屋/黑奴吁天录 Uncle.Toms.Cabin.1927.1080p.BluRay.x264.DTS-FGT 10.38GB


悠悠MP4_MP4电影下载_汤姆叔叔的小屋/黑奴吁天录 Uncle.Toms.Cabin.1927.1080p.BluRay.x264.DTS-FGT 10.38GB

◎译  名 汤姆叔叔的小屋 / 黑奴吁天录
◎片  名 Uncle Tom's Cabin
◎年  代 1927
◎产  地 美国
◎类  别 剧情 / 历史
◎语  言 英语
◎上映日期 1927-11-04
◎IMDb评分  6.8/10 from 351 users
◎IMDb链接  http://www.imdb.com/title/tt0018524
◎豆瓣评分 0/10 from 0 users
◎豆瓣链接 https://movie.douban.com/subject/4927380/
◎片  长 144 分钟
◎导  演 Harry A. Pollard
◎编  剧 Harriet Beecher Stowe / Harvey F. Thew
◎主  演 Margarita Fischer
       James B. Lowe
       J. Gordon Russell
       Gertrude Howard
       Jack Mower
       Vivien Oakland
       John Roche
       Arthur Edmund Carewe
       George Siegmann
       Eulalie Jensen
       Mona Ray
       Virginia Grey
       Lassie Lou Ahern
       Lucien Littlefield
       Adolph Milar


◎标  签 1920s | 默片 | 电影 | 美片 | 美国 | 名著改编 | 北美 | 美國

◎简  介  

  暂无相关剧情介绍

Video
ID                                       : 1
Format                                   : AVC
Format/Info                              : Advanced Video Codec
Format profile                           : [email protected]
Format settings                          : CABAC / 4 Ref Frames
Format settings, CABAC                   : Yes
Format settings, Reference frames        : 4 frames
Codec ID                                 : V_MPEG4/ISO/AVC
Duration                                 : 1 h 54 min
Bit rate                                 : 11.5 Mb/s
Width                                    : 1 448 pixels
Height                                   : 1 080 pixels
Display aspect ratio                     : 4:3
Frame rate mode                          : Constant
Frame rate                               : 23.976 (24000/1001) FPS
Color space                              : YUV
Chroma subsampling                       : 4:2:0
Bit depth                                : 8 bits
Scan type                                : Progressive
Bits/(Pixel*Frame)                       : 0.307
Stream size                              : 9.18 GiB (88%)
Title                                    : Uncle.Toms.Cabin.1927.1080p.BluRay.x264.DTS-FGT
Writing library                          : x264 core 148 r2795M aaa9aa8
Encoding settings                        : cabac=1 / ref=4 / deblock=1:-2:-2 / analyse=0x3:0x113 / me=umh / subme=9 / psy=1 / psy_rd=1.00:0.15 / mixed_ref=1 / me_range=16 / chroma_me=1 / trellis=2 / 8x8dct=1 / cqm=0 / deadzone=21,11 / fast_pskip=1 / chroma_qp_offset=-3 / threads=48 / lookahead_threads=3 / sliced_threads=0 / nr=0 / decimate=1 / interlaced=0 / bluray_compat=0 / constrained_intra=0 / bframes=3 / b_pyramid=2 / b_adapt=1 / b_bias=0 / direct=3 / weightb=1 / open_gop=0 / weightp=2 / keyint=250 / keyint_min=25 / scenecut=40 / intra_refresh=0 / rc_lookahead=50 / rc=2pass / mbtree=1 / bitrate=11500 / ratetol=1.0 / qcomp=0.60 / qpmin=0 / qpmax=69 / qpstep=4 / cplxblur=20.0 / qblur=0.5 / vbv_maxrate=31250 / vbv_bufsize=31250 / nal_hrd=none / filler=0 / ip_ratio=1.40 / aq=1:1.00
Language                                 : English
Default                                  : Yes
Forced                                   : No

Audio
ID                                       : 2
Format                                   : DTS
Format/Info                              : Digital Theater Systems
Codec ID                                 : A_DTS
Duration                                 : 1 h 54 min
Bit rate mode                            : Constant
Bit rate                                 : 1 509 kb/s
Channel(s)                               : 2 channels
Channel layout                           : L R
Sampling rate                            : 48.0 kHz
Frame rate                               : 93.750 FPS (512 SPF)
Bit depth                                : 16 bits
Compression mode                         : Lossy
Stream size                              : 1.20 GiB (12%)
Title                                    : Uncle.Toms.Cabin.1927.1080p.BluRay.x264.DTS-FGT
Language                                 : English
Default                                  : Yes
Forced                                   : No

Menu
00:00:00.000                             : en:Chapter 01
00:17:24.793                             : en:Chapter 02
00:28:20.281                             : en:Chapter 03
00:40:11.367                             : en:Chapter 04
01:02:23.656                             : en:Chapter 05
01:17:05.245                             : en:Chapter 06
01:25:24.661                             : en:Chapter 07
01:40:36.905                             : en:Chapter 08


悠悠MP4_MP4电影下载_汤姆叔叔的小屋/黑奴吁天录 Uncle.Toms.Cabin.1927.1080p.BluRay.x264.DTS-FGT 10.38GB悠悠MP4_MP4电影下载_汤姆叔叔的小屋/黑奴吁天录 Uncle.Toms.Cabin.1927.1080p.BluRay.x264.DTS-FGT 10.38GB悠悠MP4_MP4电影下载_汤姆叔叔的小屋/黑奴吁天录 Uncle.Toms.Cabin.1927.1080p.BluRay.x264.DTS-FGT 10.38GB


提示:如迅雷下载提示"任务出错"、"因版权无法下载",请尝试【迅雷5】
上传的附件:
最新回复 (0)
返回
本站所有资源均收集自互联网,没有提供影片资源存储, 也未参与录制、上传,若本站收录的资源无意侵犯了您的权益, 请联系邮箱:gogoimgs#gmail.com(#=@)