[2019] [韩国] [剧情] [BD-720P] 恶人传 The.Gangster.the.Cop.the.Devil.2019.KOREAN.720p.BluRay.x264.DTS-PbK 5.00GB

uump4 6天前 273

帖子完整标题:恶人传 The.Gangster.the.Cop.the.Devil.2019.KOREAN.720p.BluRay.x264.DTS-PbK 5.00GB


悠悠MP4_MP4电影下载_恶人传 The.Gangster.the.Cop.the.Devil.2019.KOREAN.720p.BluRay.x264.DTS-PbK 5.00GB

◎译  名 恶人传 / The Gangster, The Cop, The Devil / 恶霸?魔警?杀人狂(港) / 极恶对决(台)
◎片  名 ???
◎年  代 2019
◎产  地 韩国
◎类  别 剧情 / 动作 / 犯罪
◎语  言 韩语
◎上映日期 2019-05-15(韩国)
◎IMDb评分  6.9/10 from 1549 users
◎IMDb链接  http://www.imdb.com/title/tt10208198
◎豆瓣评分 7.7/10 from 122614 users
◎豆瓣链接 https://movie.douban.com/subject/30211551/
◎片  长 109分钟
◎导  演 李元泰 Won-tae Lee
◎编  剧 李元泰 Won-tae Lee
◎主  演 马东锡 Tong-Seok Ma
       金武烈 Moo-yeol Kim
       金成圭 Seong-gyoo Kim
       刘承睦 Yoo Seung-Mok
       崔民哲 Min-cheol Choi
       金胤成 Kim Yoon-seong
       许栋元 Heo Dong-won
       吴熙俊 Hee-joon Oh
       杨志洙 Ji-soo Yang
       金桀 Kim Kyoul
       李恩泉 Eun-saem Lee
       刘在明 Jae-myung Yoo


◎标  签 韩国 | 犯罪 | 暴力 | 动作 | 警匪 | 人性 | 悬疑 | 2019

◎简  介  

  罪犯头目张东洙(Don Lee)被一名神秘莫测的连环杀手暴力袭击之后幸存,与当地警探郑泰硕(Kim Moo Yul)形成了一种奇妙的搭档关系,联手捕捉被称为“K”的虐待狂杀手”。

Video
ID                                       : 1
Format                                   : AVC
Format/Info                              : Advanced Video Codec
Format profile                           : [email protected]
Format settings                          : CABAC / 12 Ref Frames
Format settings, CABAC                   : Yes
Format settings, Reference frames        : 12 frames
Codec ID                                 : V_MPEG4/ISO/AVC
Duration                                 : 1 h 49 min
Bit rate                                 : 5 000 kb/s
Width                                    : 1 280 pixels
Height                                   : 534 pixels
Display aspect ratio                     : 2.40:1
Frame rate mode                          : Constant
Frame rate                               : 24.000 FPS
Color space                              : YUV
Chroma subsampling                       : 4:2:0
Bit depth                                : 8 bits
Scan type                                : Progressive
Bits/(Pixel*Frame)                       : 0.305
Stream size                              : 3.84 GiB (77%)
Writing library                          : x264 core 155 r2901 7d0ff22
Encoding settings                        : cabac=1 / ref=12 / deblock=1:-3:-3 / analyse=0x3:0x133 / me=umh / subme=11 / psy=1 / psy_rd=1.00:0.00 / mixed_ref=1 / me_range=32 / chroma_me=1 / trellis=2 / 8x8dct=1 / cqm=0 / deadzone=21,11 / fast_pskip=1 / chroma_qp_offset=-2 / threads=17 / lookahead_threads=2 / sliced_threads=0 / nr=0 / decimate=1 / interlaced=0 / bluray_compat=0 / constrained_intra=0 / bframes=8 / b_pyramid=2 / b_adapt=2 / b_bias=0 / direct=3 / weightb=1 / open_gop=0 / weightp=2 / keyint=240 / keyint_min=24 / scenecut=40 / intra_refresh=0 / rc=2pass / mbtree=0 / bitrate=5000 / ratetol=1.0 / qcomp=0.60 / qpmin=0 / qpmax=69 / qpstep=4 / cplxblur=20.0 / qblur=0.5 / ip_ratio=1.30 / pb_ratio=1.20 / aq=3:0.80
Language                                 : Korean
Default                                  : Yes
Forced                                   : No
Color range                              : Limited
Color primaries                          : BT.709
Transfer characteristics                 : BT.709
Matrix coefficients                      : BT.709

Audio
ID                                       : 2
Format                                   : DTS
Format/Info                              : Digital Theater Systems
Codec ID                                 : A_DTS
Duration                                 : 1 h 49 min
Bit rate mode                            : Constant
Bit rate                                 : 1 509 kb/s
Channel(s)                               : 6 channels
Channel layout                           : C L R Ls Rs LFE
Sampling rate                            : 48.0 kHz
Frame rate                               : 93.750 FPS (512 SPF)
Bit depth                                : 16 bits
Compression mode                         : Lossy
Stream size                              : 1.16 GiB (23%)
Language                                 : Korean
Default                                  : Yes
Forced                                   : No

Text
ID                                       : 3
Format                                   : UTF-8
Codec ID                                 : S_TEXT/UTF8
Codec ID/Info                            : UTF-8 Plain Text
Duration                                 : 1 h 44 min
Bit rate                                 : 52 b/s
Count of elements                        : 1323
Stream size                              : 40.4 KiB (0%)
Language                                 : English
Default                                  : No
Forced                                   : No


悠悠MP4_MP4电影下载_恶人传 The.Gangster.the.Cop.the.Devil.2019.KOREAN.720p.BluRay.x264.DTS-PbK 5.00GB悠悠MP4_MP4电影下载_恶人传 The.Gangster.the.Cop.the.Devil.2019.KOREAN.720p.BluRay.x264.DTS-PbK 5.00GB悠悠MP4_MP4电影下载_恶人传 The.Gangster.the.Cop.the.Devil.2019.KOREAN.720p.BluRay.x264.DTS-PbK 5.00GB


提示:如迅雷下载提示"任务出错"、"因版权无法下载",请尝试【迅雷5】
上传的附件:
最新回复 (0)
返回
本站所有资源均收集自互联网,没有提供影片资源存储, 也未参与录制、上传,若本站收录的资源无意侵犯了您的权益, 请联系邮箱:gogoimgs#gmail.com(#=@)