[更早] [其他] [其他] [BD-1080P] 黑暗的森林 Dark.Woods.2003.NORWEGIAN.1080p.BluRay.x264-HANDJOB 7.31GB

uump4 6天前 114

帖子完整标题:黑暗的森林 Dark.Woods.2003.NORWEGIAN.1080p.BluRay.x264-HANDJOB 7.31GB


悠悠MP4_MP4电影下载_黑暗的森林 Dark.Woods.2003.NORWEGIAN.1080p.BluRay.x264-HANDJOB 7.31GB

◎译  名 黑暗的森林 / Dark Woods / 逃殺黑森林
◎片  名 Villmark
◎年  代 2003
◎产  地 挪威
◎类  别 悬疑 / 惊悚 / 恐怖 / 冒险
◎语  言 挪威语 / 瑞典语
◎上映日期 2003-02-21
◎IMDb评分  6.2/10 from 5080 users
◎IMDb链接  http://www.imdb.com/title/tt0356176
◎豆瓣评分 5.9/10 from 49 users
◎豆瓣链接 https://movie.douban.com/subject/4130100/
◎片  长 Norway: 85 分钟
◎导  演 P?l ?ie
◎编  剧 Christopher Gr?ndahl / P?l ?ie
◎主  演 Bj?rn Floberg
       Kristoffer Joner
       Eva R?se


◎标  签 挪威电影 | 挪威 | 惊悚 | 电影 | 恐怖 | 恐怖片 | 悬疑 | 2003

◎简  介  

  一個電視製作團隊正在籌備製作一個實境生存賽節目,參與者接受挑戰,必須想辦法從黑森林平安歸來。小組意外碰到一個可怕的場景,隨著深夜來臨,黑森林的恐怖就要上演了。

Video
ID                                       : 1
Format                                   : AVC
Format/Info                              : Advanced Video Codec
Format profile                           : [email protected]
Format settings                          : CABAC / 4 Ref Frames
Format settings, CABAC                   : Yes
Format settings, Reference frames        : 4 frames
Codec ID                                 : V_MPEG4/ISO/AVC
Duration                                 : 1 h 24 min
Bit rate                                 : 11.9 Mb/s
Width                                    : 1 920 pixels
Height                                   : 1 074 pixels
Display aspect ratio                     : 16:9
Frame rate mode                          : Constant
Frame rate                               : 24.000 FPS
Color space                              : YUV
Chroma subsampling                       : 4:2:0
Bit depth                                : 8 bits
Scan type                                : Progressive
Bits/(Pixel*Frame)                       : 0.241
Stream size                              : 7.05 GiB (96%)
Writing library                          : x264 core 157 r2935 545de2f
Encoding settings                        : cabac=1 / ref=4 / deblock=1:-3:-3 / analyse=0x3:0x133 / me=umh / subme=10 / psy=1 / psy_rd=1.00:0.00 / mixed_ref=1 / me_range=32 / chroma_me=1 / trellis=2 / 8x8dct=1 / cqm=0 / deadzone=21,11 / fast_pskip=0 / chroma_qp_offset=-2 / threads=12 / lookahead_threads=3 / sliced_threads=0 / nr=0 / decimate=0 / interlaced=0 / bluray_compat=0 / constrained_intra=0 / bframes=16 / b_pyramid=2 / b_adapt=2 / b_bias=0 / direct=3 / weightb=1 / open_gop=0 / weightp=2 / keyint=240 / keyint_min=24 / scenecut=40 / intra_refresh=0 / rc_lookahead=60 / rc=crf / mbtree=0 / crf=20.2 / qcomp=0.60 / qpmin=0 / qpmax=69 / qpstep=4 / vbv_maxrate=62500 / vbv_bufsize=78125 / crf_max=0.0 / nal_hrd=none / filler=0 / ip_ratio=1.40 / pb_ratio=1.30 / aq=2:1.00
Default                                  : Yes
Forced                                   : No
Color range                              : Limited
Color primaries                          : BT.709
Transfer characteristics                 : BT.709
Matrix coefficients                      : BT.709

Audio
ID                                       : 2
Format                                   : AC-3
Format/Info                              : Audio Coding 3
Commercial name                          : Dolby Digital
Codec ID                                 : A_AC3
Duration                                 : 1 h 24 min
Bit rate mode                            : Constant
Bit rate                                 : 448 kb/s
Channel(s)                               : 6 channels
Channel layout                           : L R C LFE Ls Rs
Sampling rate                            : 48.0 kHz
Frame rate                               : 31.250 FPS (1536 SPF)
Bit depth                                : 16 bits
Compression mode                         : Lossy
Stream size                              : 271 MiB (4%)
Language                                 : Norwegian
Service kind                             : Complete Main
Default                                  : Yes
Forced                                   : No

Text #1
ID                                       : 3
Format                                   : UTF-8
Codec ID                                 : S_TEXT/UTF8
Codec ID/Info                            : UTF-8 Plain Text
Duration                                 : 1 h 21 min
Bit rate                                 : 21 b/s
Count of elements                        : 433
Stream size                              : 12.8 KiB (0%)
Language                                 : English
Default                                  : Yes
Forced                                   : No

Text #2
ID                                       : 4
Format                                   : UTF-8
Codec ID                                 : S_TEXT/UTF8
Codec ID/Info                            : UTF-8 Plain Text
Duration                                 : 1 h 21 min
Bit rate                                 : 22 b/s
Count of elements                        : 446
Stream size                              : 13.5 KiB (0%)
Language                                 : Norwegian
Default                                  : No
Forced                                   : No

Text #3
ID                                       : 5
Format                                   : UTF-8
Codec ID                                 : S_TEXT/UTF8
Codec ID/Info                            : UTF-8 Plain Text
Duration                                 : 1 h 21 min
Bit rate                                 : 21 b/s
Count of elements                        : 418
Stream size                              : 13.1 KiB (0%)
Language                                 : Swedish
Default                                  : No
Forced                                   : No

Text #4
ID                                       : 6
Format                                   : UTF-8
Codec ID                                 : S_TEXT/UTF8
Codec ID/Info                            : UTF-8 Plain Text
Duration                                 : 1 h 24 min
Bit rate                                 : 21 b/s
Count of elements                        : 419
Stream size                              : 13.0 KiB (0%)
Language                                 : Danish
Default                                  : No
Forced                                   : No

Text #5
ID                                       : 7
Format                                   : UTF-8
Codec ID                                 : S_TEXT/UTF8
Codec ID/Info                            : UTF-8 Plain Text
Duration                                 : 1 h 17 min
Bit rate                                 : 22 b/s
Count of elements                        : 418
Stream size                              : 12.7 KiB (0%)
Language                                 : Finnish
Default                                  : No
Forced                                   : No

Menu
00:00:00.000                             : :Chapter 01
00:10:44.625                             : :Chapter 02
00:18:37.875                             : :Chapter 03
00:28:05.708                             : :Chapter 04
00:37:15.708                             : :Chapter 05
00:43:20.208                             : :Chapter 06
00:51:12.958                             : :Chapter 07
00:58:30.958                             : :Chapter 08
01:05:07.250                             : :Chapter 09
01:12:39.125                             : :Chapter 10
01:16:35.541                             : :Chapter 11
01:20:08.458                             : :Chapter 12


悠悠MP4_MP4电影下载_黑暗的森林 Dark.Woods.2003.NORWEGIAN.1080p.BluRay.x264-HANDJOB 7.31GB悠悠MP4_MP4电影下载_黑暗的森林 Dark.Woods.2003.NORWEGIAN.1080p.BluRay.x264-HANDJOB 7.31GB悠悠MP4_MP4电影下载_黑暗的森林 Dark.Woods.2003.NORWEGIAN.1080p.BluRay.x264-HANDJOB 7.31GB


提示:如迅雷下载提示"任务出错"、"因版权无法下载",请尝试【迅雷5】
上传的附件:
最新回复 (0)
返回
本站所有资源均收集自互联网,没有提供影片资源存储, 也未参与录制、上传,若本站收录的资源无意侵犯了您的权益, 请联系邮箱:gogoimgs#gmail.com(#=@)