[2015] [其他] [恐怖] [BD-720P] 腥乐园 The.Hexecutioners.2015.720p.BluRay.x264-GETiT 3.28GB

uump4 6天前 131

帖子完整标题:腥乐园 The.Hexecutioners.2015.720p.BluRay.x264-GETiT 3.28GB


悠悠MP4_MP4电影下载_腥乐园 The.Hexecutioners.2015.720p.BluRay.x264-GETiT 3.28GB

◎译  名 腥乐园
◎片  名 The Hexecutioners
◎年  代 2015
◎产  地 (Canada)
◎类  别 恐怖
◎语  言 英语
◎IMDb评分  4.1/10 from 441 users
◎IMDb链接  http://www.imdb.com/title/tt5080804
◎豆瓣评分 0/10 from 0 users
◎豆瓣链接 https://movie.douban.com/subject/26808826/
◎导  演 Jesse Thomas Cook
◎编  剧 Tony Burgess
◎主  演 Liv Collins, Sarah Power, Timothy Burd


◎标  签 惊悚 | 恐怖 | 美国 | 其他地区 | 2015

◎简  介  

  Two disparate young women working for a company that conducts euthanasia are dispatched to a remote estate to perform a custom assisted-suicide ritual, but unwittingly summon the wraiths of a Death Cult that once inhabited the property.

Video
ID                                       : 1
Format                                   : AVC
Format/Info                              : Advanced Video Codec
Format profile                           : [email protected]
Format settings                          : CABAC / 5 Ref Frames
Format settings, CABAC                   : Yes
Format settings, Reference frames        : 5 frames
Codec ID                                 : V_MPEG4/ISO/AVC
Duration                                 : 1 h 37 min
Bit rate                                 : 4 054 kb/s
Width                                    : 1 280 pixels
Height                                   : 536 pixels
Display aspect ratio                     : 2.40:1
Frame rate mode                          : Constant
Frame rate                               : 23.976 (24000/1001) FPS
Color space                              : YUV
Chroma subsampling                       : 4:2:0
Bit depth                                : 8 bits
Scan type                                : Progressive
Bits/(Pixel*Frame)                       : 0.246
Stream size                              : 2.75 GiB (84%)
Writing library                          : x264 core 157 r2969 d4099dd
Encoding settings                        : cabac=1 / ref=5 / deblock=1:0:0 / analyse=0x3:0x133 / me=umh / subme=7 / psy=1 / psy_rd=1.00:0.00 / mixed_ref=1 / me_range=16 / chroma_me=1 / trellis=2 / 8x8dct=1 / cqm=0 / deadzone=21,11 / fast_pskip=0 / chroma_qp_offset=-2 / threads=16 / lookahead_threads=2 / sliced_threads=0 / nr=0 / decimate=1 / interlaced=0 / bluray_compat=0 / constrained_intra=0 / bframes=3 / b_pyramid=2 / b_adapt=1 / b_bias=0 / direct=3 / weightb=1 / open_gop=0 / weightp=2 / keyint=250 / keyint_min=23 / scenecut=40 / intra_refresh=0 / rc_lookahead=50 / rc=2pass / mbtree=1 / bitrate=4054 / ratetol=1.0 / qcomp=0.60 / qpmin=0 / qpmax=69 / qpstep=4 / cplxblur=20.0 / qblur=0.5 / ip_ratio=1.40 / aq=1:1.00
Language                                 : English
Default                                  : Yes
Forced                                   : No

Audio
ID                                       : 2
Format                                   : DTS
Format/Info                              : Digital Theater Systems
Codec ID                                 : A_DTS
Duration                                 : 1 h 37 min
Bit rate mode                            : Constant
Bit rate                                 : 768 kb/s
Channel(s)                               : 6 channels
Channel layout                           : C L R Ls Rs LFE
Sampling rate                            : 48.0 kHz
Frame rate                               : 93.750 FPS (512 SPF)
Bit depth                                : 24 bits
Compression mode                         : Lossy
Stream size                              : 534 MiB (16%)
Title                                    : dts
Language                                 : English
Default                                  : Yes
Forced                                   : No

Menu
00:00:00.000                             : en:00:00:00.000
00:05:22.489                             : en:00:05:22.489
00:13:16.713                             : en:00:13:16.713
00:22:37.773                             : en:00:22:37.773
00:28:51.980                             : en:00:28:51.980
00:36:19.511                             : en:00:36:19.511
00:48:47.675                             : en:00:48:47.675
00:59:55.967                             : en:00:59:55.967
01:09:48.351                             : en:01:09:48.351
01:19:06.158                             : en:01:19:06.158
01:25:30.792                             : en:01:25:30.792
01:34:04.389                             : en:01:34:04.389


悠悠MP4_MP4电影下载_腥乐园 The.Hexecutioners.2015.720p.BluRay.x264-GETiT 3.28GB


提示:如迅雷下载提示"任务出错"、"因版权无法下载",请尝试【迅雷5】
上传的附件:
最新回复 (0)
返回
本站所有资源均收集自互联网,没有提供影片资源存储, 也未参与录制、上传,若本站收录的资源无意侵犯了您的权益, 请联系邮箱:gogoimgs#gmail.com(#=@)