[更早] [其他] [恐怖] [BD-1080P] 鬼门关 Beyond.the.Door.1974.1080p.BluRay.x264.DTS-FGT 9.79GB

uump4 6天前 76

帖子完整标题:鬼门关 Beyond.the.Door.1974.1080p.BluRay.x264.DTS-FGT 9.79GB


悠悠MP4_MP4电影下载_鬼门关 Beyond.the.Door.1974.1080p.BluRay.x264.DTS-FGT 9.79GB

◎译  名 鬼门关 / Behind the Door / Beyond Obsession (USA) / Beyond the Door / Chi sei? (Italy) / The Devil Within Her (UK) / Who?
◎片  名 Beyond the Door
◎年  代 1974
◎产  地 意大利 / 美国
◎类  别 恐怖
◎语  言 英语
◎上映日期 1974-11-21
◎IMDb评分  4.6/10 from 1392 users
◎IMDb链接  http://www.imdb.com/title/tt0071212
◎豆瓣评分 0/10 from 0 users
◎豆瓣链接 https://movie.douban.com/subject/2239650/
◎片  长 109 分钟
◎导  演 Ovidio G. Assonitis / Robert Barrett
◎编  剧 Ovidio G. Assonitis / Robert Barrett / Aldo Crudo / Sonia Molteni
◎主  演 Juliet Mills
       Gabriele Lavia


◎标  签 恐怖 | 意大利 | 1970 | 灵异 | tehPARADOX | Ovidio_G._Assonitis | 意大利电影 | x264

◎简  介  

  Beyond this door the most terrifying event in the history of mankind is about to occur

Video
ID                                       : 1
Format                                   : AVC
Format/Info                              : Advanced Video Codec
Format profile                           : [email protected]
Format settings                          : CABAC / 4 Ref Frames
Format settings, CABAC                   : Yes
Format settings, Reference frames        : 4 frames
Codec ID                                 : V_MPEG4/ISO/AVC
Duration                                 : 1 h 47 min
Bit rate                                 : 11.5 Mb/s
Width                                    : 1 920 pixels
Height                                   : 1 036 pixels
Display aspect ratio                     : 1.85:1
Frame rate mode                          : Constant
Frame rate                               : 23.976 (24000/1001) FPS
Color space                              : YUV
Chroma subsampling                       : 4:2:0
Bit depth                                : 8 bits
Scan type                                : Progressive
Bits/(Pixel*Frame)                       : 0.241
Stream size                              : 8.66 GiB (88%)
Title                                    : Beyond.the.Door.1974.1080p.BluRay.x264.DTS-FGT
Writing library                          : x264 core 148 r2795M aaa9aa8
Encoding settings                        : cabac=1 / ref=4 / deblock=1:-2:-2 / analyse=0x3:0x113 / me=umh / subme=9 / psy=1 / psy_rd=1.00:0.15 / mixed_ref=1 / me_range=16 / chroma_me=1 / trellis=2 / 8x8dct=1 / cqm=0 / deadzone=21,11 / fast_pskip=1 / chroma_qp_offset=-3 / threads=48 / lookahead_threads=3 / sliced_threads=0 / nr=0 / decimate=1 / interlaced=0 / bluray_compat=0 / constrained_intra=0 / bframes=3 / b_pyramid=2 / b_adapt=1 / b_bias=0 / direct=3 / weightb=1 / open_gop=0 / weightp=2 / keyint=250 / keyint_min=25 / scenecut=40 / intra_refresh=0 / rc_lookahead=50 / rc=2pass / mbtree=1 / bitrate=11500 / ratetol=1.0 / qcomp=0.60 / qpmin=0 / qpmax=69 / qpstep=4 / cplxblur=20.0 / qblur=0.5 / vbv_maxrate=31250 / vbv_bufsize=31250 / nal_hrd=none / filler=0 / ip_ratio=1.40 / aq=1:1.00
Language                                 : English
Default                                  : Yes
Forced                                   : No

Audio
ID                                       : 2
Format                                   : DTS
Format/Info                              : Digital Theater Systems
Codec ID                                 : A_DTS
Duration                                 : 1 h 47 min
Bit rate mode                            : Constant
Bit rate                                 : 1 509 kb/s
Channel(s)                               : 2 channels
Channel layout                           : L R
Sampling rate                            : 48.0 kHz
Frame rate                               : 93.750 FPS (512 SPF)
Bit depth                                : 24 bits
Compression mode                         : Lossy
Stream size                              : 1.14 GiB (12%)
Title                                    : Beyond.the.Door.1974.1080p.BluRay.x264.DTS-FGT
Language                                 : English
Default                                  : Yes
Forced                                   : No

Menu
00:00:00.000                             : en:Chapter 01
00:09:44.959                             : en:Chapter 02
00:18:23.519                             : en:Chapter 03
00:24:49.613                             : en:Chapter 04
00:28:36.881                             : en:Chapter 05
00:33:04.774                             : en:Chapter 06
00:41:42.833                             : en:Chapter 07
00:48:04.047                             : en:Chapter 08
00:51:53.068                             : en:Chapter 09
00:58:28.338                             : en:Chapter 10
01:05:40.895                             : en:Chapter 11
01:09:43.888                             : en:Chapter 12
01:16:23.662                             : en:Chapter 13
01:21:17.038                             : en:Chapter 14
01:27:11.893                             : en:Chapter 15
01:32:12.318                             : en:Chapter 16
01:38:05.754                             : en:Chapter 17
01:46:45.107                             : en:Chapter 18


悠悠MP4_MP4电影下载_鬼门关 Beyond.the.Door.1974.1080p.BluRay.x264.DTS-FGT 9.79GB悠悠MP4_MP4电影下载_鬼门关 Beyond.the.Door.1974.1080p.BluRay.x264.DTS-FGT 9.79GB悠悠MP4_MP4电影下载_鬼门关 Beyond.the.Door.1974.1080p.BluRay.x264.DTS-FGT 9.79GB


提示:如迅雷下载提示"任务出错"、"因版权无法下载",请尝试【迅雷5】
上传的附件:
最新回复 (0)
返回
本站所有资源均收集自互联网,没有提供影片资源存储, 也未参与录制、上传,若本站收录的资源无意侵犯了您的权益, 请联系邮箱:gogoimgs#gmail.com(#=@)