[更早] [欧美] [喜剧] [BD-1080P] 艾莲妹妹 My.Sister.Eileen.1955.1080p.BluRay.x264.DTS-FGT 9.76GB

uump4 6天前 91

帖子完整标题:艾莲妹妹 My.Sister.Eileen.1955.1080p.BluRay.x264.DTS-FGT 9.76GB


悠悠MP4_MP4电影下载_艾莲妹妹 My.Sister.Eileen.1955.1080p.BluRay.x264.DTS-FGT 9.76GB

◎译  名 艾莲妹妹
◎片  名 My Sister Eileen
◎年  代 1955
◎产  地 美国
◎类  别 喜剧 / 爱情 / 歌舞
◎语  言 英语 / 葡萄牙语
◎上映日期 1955-09-22(美国)
◎IMDb评分  6.8/10 from 1390 users
◎IMDb链接  http://www.imdb.com/title/tt0048401
◎豆瓣评分 0/10 from 0 users
◎豆瓣链接 https://movie.douban.com/subject/1303317/
◎片  长 108分钟
◎导  演 理查德·奎因 Richard Quine
◎编  剧 布莱克·爱德华兹 Blake Edwards / Jerome Chodorov / 约瑟夫·菲尔兹 Joseph Fields / 理查德·奎因 Richard Quine / Ruth McKenney
◎主  演 珍妮特·利 Janet Leigh
       杰克·莱蒙 Jack Lemmon
       Betty Garrett


◎标  签 歌舞 | 美国 | 歌舞片 | 杰克·莱蒙 | 音乐剧 | 美國 | 美国电影 | 珍妮特·利

◎简  介  

  Arguably Quine’s most delightful film, My Sister Eileen is a musical scored by Jule Styne and Leo Robin and based on the same source material as Comden and Green’s irresistible Broadway show Wonderful Town. The film follows two sisters from Ohio newly transplanted to Greenwich Village and struggling to find work and love in the big city. As so often in Quine’s work, story is secondary to mood and character. The first film for which Bob Fosse received screen credit as a choreographer, My Sister Eileen is also perhaps the film in which Fosse appears onscreen for the greatest amount of time. A welcome alternative to the somewhat more formal MGM musicals of the period, My Sister Eileen possesses a charm and intimacy of scale that remains as appealing today as it was at its first release.

Video
ID                                       : 1
Format                                   : AVC
Format/Info                              : Advanced Video Codec
Format profile                           : [email protected]
Format settings                          : CABAC / 4 Ref Frames
Format settings, CABAC                   : Yes
Format settings, Reference frames        : 4 frames
Codec ID                                 : V_MPEG4/ISO/AVC
Duration                                 : 1 h 47 min
Bit rate                                 : 11.5 Mb/s
Width                                    : 1 920 pixels
Height                                   : 752 pixels
Display aspect ratio                     : 2.553
Frame rate mode                          : Constant
Frame rate                               : 23.976 (24000/1001) FPS
Color space                              : YUV
Chroma subsampling                       : 4:2:0
Bit depth                                : 8 bits
Scan type                                : Progressive
Bits/(Pixel*Frame)                       : 0.332
Stream size                              : 8.63 GiB (88%)
Title                                    : My.Sister.Eileen.1955.1080p.BluRay.x264.DTS-FGT
Writing library                          : x264 core 148 r2795M aaa9aa8
Encoding settings                        : cabac=1 / ref=4 / deblock=1:-2:-2 / analyse=0x3:0x113 / me=umh / subme=9 / psy=1 / psy_rd=1.00:0.15 / mixed_ref=1 / me_range=16 / chroma_me=1 / trellis=2 / 8x8dct=1 / cqm=0 / deadzone=21,11 / fast_pskip=1 / chroma_qp_offset=-3 / threads=48 / lookahead_threads=3 / sliced_threads=0 / nr=0 / decimate=1 / interlaced=0 / bluray_compat=0 / constrained_intra=0 / bframes=3 / b_pyramid=2 / b_adapt=1 / b_bias=0 / direct=3 / weightb=1 / open_gop=0 / weightp=2 / keyint=250 / keyint_min=25 / scenecut=40 / intra_refresh=0 / rc_lookahead=50 / rc=2pass / mbtree=1 / bitrate=11500 / ratetol=1.0 / qcomp=0.60 / qpmin=0 / qpmax=69 / qpstep=4 / cplxblur=20.0 / qblur=0.5 / vbv_maxrate=31250 / vbv_bufsize=31250 / nal_hrd=none / filler=0 / ip_ratio=1.40 / aq=1:1.00
Language                                 : English
Default                                  : Yes
Forced                                   : No

Audio
ID                                       : 2
Format                                   : DTS
Format/Info                              : Digital Theater Systems
Codec ID                                 : A_DTS
Duration                                 : 1 h 47 min
Bit rate mode                            : Constant
Bit rate                                 : 1 509 kb/s
Channel(s)                               : 6 channels
Channel layout                           : C L R Ls Rs LFE
Sampling rate                            : 48.0 kHz
Frame rate                               : 93.750 FPS (512 SPF)
Bit depth                                : 24 bits
Compression mode                         : Lossy
Stream size                              : 1.13 GiB (12%)
Title                                    : My.Sister.Eileen.1955.1080p.BluRay.x264.DTS-FGT
Language                                 : English
Default                                  : Yes
Forced                                   : No

Text
ID                                       : 3
Format                                   : UTF-8
Codec ID                                 : S_TEXT/UTF8
Codec ID/Info                            : UTF-8 Plain Text
Duration                                 : 1 h 46 min
Bit rate                                 : 81 b/s
Count of elements                        : 1978
Stream size                              : 63.4 KiB (0%)
Language                                 : English
Default                                  : Yes
Forced                                   : No

Menu
00:00:00.000                             : en:Chapter 1
00:04:01.366                             : en:Chapter 2
00:08:20.250                             : en:Chapter 3
00:12:56.484                             : en:Chapter 4
00:18:19.598                             : en:Chapter 5
00:23:47.843                             : en:Chapter 6
00:28:24.578                             : en:Chapter 7
00:33:23.126                             : en:Chapter 8
00:36:42.325                             : en:Chapter 9
00:41:07.173                             : en:Chapter 10
00:46:21.237                             : en:Chapter 11
00:49:43.939                             : en:Chapter 12
00:54:44.698                             : en:Chapter 13
01:00:11.483                             : en:Chapter 14
01:04:53.890                             : en:Chapter 15
01:10:31.436                             : en:Chapter 16
01:12:50.825                             : en:Chapter 17
01:18:13.063                             : en:Chapter 18
01:24:57.843                             : en:Chapter 19
01:27:00.298                             : en:Chapter 20
01:30:42.687                             : en:Chapter 21
01:33:46.579                             : en:Chapter 22
01:40:40.493                             : en:Chapter 23
01:43:04.929                             : en:Chapter 24


悠悠MP4_MP4电影下载_艾莲妹妹 My.Sister.Eileen.1955.1080p.BluRay.x264.DTS-FGT 9.76GB悠悠MP4_MP4电影下载_艾莲妹妹 My.Sister.Eileen.1955.1080p.BluRay.x264.DTS-FGT 9.76GB悠悠MP4_MP4电影下载_艾莲妹妹 My.Sister.Eileen.1955.1080p.BluRay.x264.DTS-FGT 9.76GB


提示:如迅雷下载提示"任务出错"、"因版权无法下载",请尝试【迅雷5】
上传的附件:
最新回复 (0)
返回
本站所有资源均收集自互联网,没有提供影片资源存储, 也未参与录制、上传,若本站收录的资源无意侵犯了您的权益, 请联系邮箱:gogoimgs#gmail.com(#=@)