[更早] [欧美] [剧情] [BD-1080P] 纽约船坞 The.Docks.of.New.York.1928.1080p.BluRay.x264.DTS-FGT 6.87GB

uump4 12天前 65

帖子完整标题:纽约船坞 The.Docks.of.New.York.1928.1080p.BluRay.x264.DTS-FGT 6.87GB


悠悠MP4_MP4电影下载_纽约船坞 The.Docks.of.New.York.1928.1080p.BluRay.x264.DTS-FGT 6.87GB

◎译  名 纽约船坞
◎片  名 The Docks of New York
◎年  代 1928
◎产  地 美国
◎类  别 剧情 / 爱情 / 犯罪
◎语  言 英语
◎上映日期 1928-09-29
◎IMDb评分  7.5/10 from 3556 users
◎IMDb链接  http://www.imdb.com/title/tt0018839
◎豆瓣评分 7.7/10 from 324 users
◎豆瓣链接 https://movie.douban.com/subject/1855285/
◎片  长 76分钟
◎导  演 约瑟夫·冯·斯坦伯格 Josef von Sternberg
◎编  剧 朱尔斯·福瑟曼 Jules Furthman / Julian Johnson / John Monk Saunders
◎主  演 乔治·班克罗夫特 George Bancroft
       贝蒂·康姆逊 Betty Compson
       奥尔加·巴古拉诺娃 Olga Baclanova


◎标  签 美国 | 默片 | 约瑟夫·冯·斯登堡 | 1928 | 1920s | CC | JosefvonSternberg | Josef_von_Sternberg

◎简  介  

  The ship on which Bill Roberts is a stoker has just put into port, giving the crew one night ashore. The ship's bad-tempered third engineer orders the stokers to clean up, while the engineer heads for a dockside bar, where he has a confrontation with the wife he had abandoned. Then, as Bill himself goes ashore, he sees a young woman attempt to drown herself. Bill dives in, saves her, and then, assisted by the engineer's wife, sees that she is cared for. Bill and the rescued woman begin to enjoy one another's company, but they must contend with the malice of the engineer, as well as a number of other complications.

Video
ID                                       : 1
Format                                   : AVC
Format/Info                              : Advanced Video Codec
Format profile                           : [email protected]
Format settings                          : CABAC / 4 Ref Frames
Format settings, CABAC                   : Yes
Format settings, Reference frames        : 4 frames
Codec ID                                 : V_MPEG4/ISO/AVC
Duration                                 : 1 h 15 min
Bit rate                                 : 11.5 Mb/s
Width                                    : 1 440 pixels
Height                                   : 1 080 pixels
Display aspect ratio                     : 4:3
Frame rate mode                          : Constant
Frame rate                               : 23.976 (24000/1001) FPS
Color space                              : YUV
Chroma subsampling                       : 4:2:0
Bit depth                                : 8 bits
Scan type                                : Progressive
Bits/(Pixel*Frame)                       : 0.308
Stream size                              : 6.07 GiB (88%)
Title                                    : The.Docks.of.New.York.1928.1080p.BluRay.x264.DTS-FGT
Writing library                          : x264 core 148 r2748 97eaef2
Encoding settings                        : cabac=1 / ref=4 / deblock=1:-2:-2 / analyse=0x3:0x113 / me=umh / subme=9 / psy=1 / psy_rd=1.00:0.15 / mixed_ref=1 / me_range=16 / chroma_me=1 / trellis=2 / 8x8dct=1 / cqm=0 / deadzone=21,11 / fast_pskip=1 / chroma_qp_offset=-3 / threads=24 / lookahead_threads=3 / sliced_threads=0 / nr=0 / decimate=1 / interlaced=0 / bluray_compat=0 / constrained_intra=0 / bframes=3 / b_pyramid=2 / b_adapt=1 / b_bias=0 / direct=3 / weightb=1 / open_gop=0 / weightp=2 / keyint=250 / keyint_min=25 / scenecut=40 / intra_refresh=0 / rc_lookahead=50 / rc=2pass / mbtree=1 / bitrate=11500 / ratetol=1.0 / qcomp=0.60 / qpmin=0 / qpmax=69 / qpstep=4 / cplxblur=20.0 / qblur=0.5 / vbv_maxrate=31250 / vbv_bufsize=31250 / nal_hrd=none / filler=0 / ip_ratio=1.40 / aq=1:1.00
Language                                 : English
Default                                  : Yes
Forced                                   : No

Audio
ID                                       : 2
Format                                   : DTS
Format/Info                              : Digital Theater Systems
Codec ID                                 : A_DTS
Duration                                 : 1 h 15 min
Bit rate mode                            : Constant
Bit rate                                 : 1 509 kb/s
Channel(s)                               : 2 channels
Channel layout                           : L R
Sampling rate                            : 48.0 kHz
Frame rate                               : 93.750 FPS (512 SPF)
Bit depth                                : 16 bits
Compression mode                         : Lossy
Stream size                              : 816 MiB (12%)
Title                                    : The.Docks.of.New.York.1928.1080p.BluRay.x264.DTS-FGT
Language                                 : English
Default                                  : Yes
Forced                                   : No

Menu
00:00:00.000                             : en:Chapter 01
00:01:12.155                             : en:Chapter 02
00:05:49.140                             : en:Chapter 03
00:09:11.884                             : en:Chapter 04
00:14:42.840                             : en:Chapter 05
00:18:58.929                             : en:Chapter 06
00:23:12.516                             : en:Chapter 07
00:28:23.535                             : en:Chapter 08
00:35:19.700                             : en:Chapter 09
00:46:42.466                             : en:Chapter 10
00:50:03.750                             : en:Chapter 11
00:55:35.749                             : en:Chapter 12
01:00:21.701                             : en:Chapter 13
01:06:48.295                             : en:Chapter 14
01:10:23.677                             : en:Chapter 15


悠悠MP4_MP4电影下载_纽约船坞 The.Docks.of.New.York.1928.1080p.BluRay.x264.DTS-FGT 6.87GB悠悠MP4_MP4电影下载_纽约船坞 The.Docks.of.New.York.1928.1080p.BluRay.x264.DTS-FGT 6.87GB悠悠MP4_MP4电影下载_纽约船坞 The.Docks.of.New.York.1928.1080p.BluRay.x264.DTS-FGT 6.87GB


提示:如迅雷下载提示"任务出错"、"因版权无法下载",请尝试【迅雷5】
上传的附件:
最新回复 (0)
返回
本站所有资源均收集自互联网,没有提供影片资源存储, 也未参与录制、上传,若本站收录的资源无意侵犯了您的权益, 请联系邮箱:gogoimgs#gmail.com(#=@)