[2019] [欧美] [喜剧] [4K-原盘] 夏福特 Shaft.2019.2160p.BluRay.REMUX.HEVC.DTS-HD.MA.TrueHD.7.1.Atmos-FGT 51.55GB

uump4 7天前 123

帖子完整标题:夏福特 Shaft.2019.2160p.BluRay.REMUX.HEVC.DTS-HD.MA.TrueHD.7.1.Atmos-FGT 51.55GB


悠悠MP4_MP4电影下载_夏福特 Shaft.2019.2160p.BluRay.REMUX.HEVC.DTS-HD.MA.TrueHD.7.1.Atmos-FGT 51.55GB

◎译  名 夏福特 / Shaft 2 / Son of Shaft / 夏福特之子 / 新杀戮战警(台) / 杀戮战警2 / 辣手刑警 2:勉强父子档(港) / 铁杆神探2
◎片  名 Shaft
◎年  代 2019
◎产  地 美国
◎类  别 喜剧 / 动作 / 犯罪
◎语  言 英语
◎上映日期 2019-06-14(美国)
◎IMDb评分  6.4/10 from 26729 users
◎IMDb链接  http://www.imdb.com/title/tt4463894
◎豆瓣评分 6.8/10 from 5224 users
◎豆瓣链接 https://movie.douban.com/subject/27116384/
◎片  长 111分钟
◎导  演 蒂姆·斯托瑞 Tim Story
◎编  剧 肯尼亚·巴里斯 Kenya Barris / 亚历克斯·巴诺 Alex Barnow / 欧内斯特·泰迪曼 Ernest Tidyman
◎主  演 塞缪尔·杰克逊 Samuel L. Jackson
       杰西·厄舍 Jessie Usher
       理查德·朗德特里 Richard Roundtree
       雷吉娜·赫尔 Regina Hall
       亚历山德拉·希普 Alexandra Shipp
       马特·劳里亚 Matt Lauria
       提图斯·维里沃 Titus Welliver
       马索·曼恩 Method Man
       伊萨赫·德·班克尔 Isaach De Bankolé
       阿万·乔贾 Avan Jogia
       劳伦·维勒斯 Lauren Vélez
       伊恩·卡塞尔伯里 Ian Casselberry
       西尔维娅·杰弗里斯 Sylvia Jefferies
       迈克·顿斯顿 Mike Dunston
       查尔斯·格林 Charles Green
       艾德丽安·C·摩尔 Adrienne C. Moore
       乔恩·亚瑟 Jon Arthur
       肖恩·贝克 Sean Baker
       蒂莫西·卡尔 Timothy Carr
       大卫·邓斯顿 David Dunston
       何塞·阿尔弗雷多·费尔南德斯 José Alfredo Fernandez
       安东尼·B·哈里斯 Anthony B. Harris
       德梅特里·兰德尔 Demetri Landell
       汉斯·马雷罗 Hans Marrero
       布赖希亚·马歇尔 Brayhia Marshall
       肖恩·麦克米伦 Shaun McMillan
       本杰明·韦弗 Benjamin Weaver


◎标  签 喜剧 | 动作 | 犯罪 | 美国 | 黑人 | 2019 | 黑色幽默 | 华纳

◎简  介  

  杰西·厄舍加盟[杀戮战警]续作[夏福特之子](Son of Shaft,暂译),塞缪尔·杰克逊同时回归。本片由蒂姆·斯托瑞([佐州自救兄弟])执导,肯尼亚·巴里斯编剧。厄舍扮演杰克逊的儿子,他同时也是一名联邦调查局工作人员,更是网络专家。

Video
ID                                       : 1
Format                                   : HEVC
Format/Info                              : High Efficiency Video Coding
Format profile                           : Main [email protected]@High
HDR format                               : SMPTE ST 2086, HDR10 compatible
Codec ID                                 : V_MPEGH/ISO/HEVC
Duration                                 : 1 h 51 min
Bit rate                                 : 55.9 Mb/s
Width                                    : 3 840 pixels
Height                                   : 2 160 pixels
Display aspect ratio                     : 16:9
Frame rate mode                          : Constant
Frame rate                               : 23.976 (24000/1001) FPS
Color space                              : YUV
Chroma subsampling                       : 4:2:0 (Type 2)
Bit depth                                : 10 bits
Bits/(Pixel*Frame)                       : 0.281
Stream size                              : 43.5 GiB (84%)
Title                                    : Shaft.2019.2160p.BluRay.REMUX.HEVC.DTS-HD.MA.TrueHD.7.1.Atmos-FGT
Writing library                          : ATEME Titan File 3.9.0 (4.9.0.0)        
Language                                 : English
Default                                  : No
Forced                                   : No
Color range                              : Limited
Color primaries                          : BT.2020
Transfer characteristics                 : PQ
Matrix coefficients                      : BT.2020 non-constant
Mastering display color primaries        : Display P3
Mastering display luminance              : min: 0.0050 cd/m2, max: 4000 cd/m2
Maximum Content Light Level              : 718 cd/m2
Maximum Frame-Average Light Level        : 132 cd/m2

Audio #1
ID                                       : 2
Format                                   : MLP FBA 16-ch
Format/Info                              : Meridian Lossless Packing FBA with 16-channel presentation
Commercial name                          : Dolby TrueHD with Dolby Atmos
Codec ID                                 : A_TRUEHD
Duration                                 : 1 h 51 min
Bit rate mode                            : Variable
Bit rate                                 : 3 622 kb/s
Maximum bit rate                         : 6 336 kb/s
Channel(s)                               : 8 channels
Channel layout                           : L R C LFE Ls Rs Lb Rb
Sampling rate                            : 48.0 kHz
Frame rate                               : 1 200.000 FPS (40 SPF)
Compression mode                         : Lossless
Stream size                              : 2.82 GiB (5%)
Title                                    : Shaft.2019.2160p.BluRay.REMUX.HEVC.DTS-HD.MA.TrueHD.7.1.Atmos-FGT
Language                                 : English
Default                                  : Yes
Forced                                   : No
Number of dynamic objects                : 15
Bed channel count                        : 1 channel
Bed channel configuration                : LFE

Audio #2
ID                                       : 3
Format                                   : DTS XLL
Format/Info                              : Digital Theater Systems
Commercial name                          : DTS-HD Master Audio
Codec ID                                 : A_DTS
Duration                                 : 1 h 51 min
Bit rate mode                            : Variable
Bit rate                                 : 4 026 kb/s
Channel(s)                               : 8 channels
Channel layout                           : C L R LFE Lb Rb Lss Rss
Sampling rate                            : 48.0 kHz
Frame rate                               : 93.750 FPS (512 SPF)
Bit depth                                : 24 bits
Compression mode                         : Lossless
Stream size                              : 3.14 GiB (6%)
Title                                    : Shaft.2019.2160p.BluRay.REMUX.HEVC.DTS-HD.MA.TrueHD.7.1.Atmos-FGT
Language                                 : English
Default                                  : No
Forced                                   : No

Audio #3
ID                                       : 4
Format                                   : AC-3
Format/Info                              : Audio Coding 3
Commercial name                          : Dolby Digital
Codec ID                                 : A_AC3
Duration                                 : 1 h 51 min
Bit rate mode                            : Constant
Bit rate                                 : 640 kb/s
Channel(s)                               : 6 channels
Channel layout                           : L R C LFE Ls Rs
Sampling rate                            : 48.0 kHz
Frame rate                               : 31.250 FPS (1536 SPF)
Bit depth                                : 16 bits
Compression mode                         : Lossy
Stream size                              : 510 MiB (1%)
Title                                    : Shaft.2019.2160p.BluRay.REMUX.HEVC.DTS-HD.MA.TrueHD.7.1.Atmos-FGT
Language                                 : English
Service kind                             : Complete Main
Default                                  : No
Forced                                   : No

Audio #4
ID                                       : 5
Format                                   : AC-3
Format/Info                              : Audio Coding 3
Commercial name                          : Dolby Digital
Codec ID                                 : A_AC3
Duration                                 : 1 h 51 min
Bit rate mode                            : Constant
Bit rate                                 : 640 kb/s
Channel(s)                               : 6 channels
Channel layout                           : L R C LFE Ls Rs
Sampling rate                            : 48.0 kHz
Frame rate                               : 31.250 FPS (1536 SPF)
Bit depth                                : 16 bits
Compression mode                         : Lossy
Stream size                              : 510 MiB (1%)
Title                                    : Shaft.2019.2160p.BluRay.REMUX.HEVC.DTS-HD.MA.TrueHD.7.1.Atmos-FGT
Language                                 : English
Service kind                             : Complete Main
Default                                  : No
Forced                                   : No

Audio #5
ID                                       : 6
Format                                   : AC-3
Format/Info                              : Audio Coding 3
Commercial name                          : Dolby Digital
Codec ID                                 : A_AC3
Duration                                 : 1 h 51 min
Bit rate mode                            : Constant
Bit rate                                 : 640 kb/s
Channel(s)                               : 6 channels
Channel layout                           : L R C LFE Ls Rs
Sampling rate                            : 48.0 kHz
Frame rate                               : 31.250 FPS (1536 SPF)
Bit depth                                : 16 bits
Compression mode                         : Lossy
Stream size                              : 510 MiB (1%)
Title                                    : Shaft.2019.2160p.BluRay.REMUX.HEVC.DTS-HD.MA.TrueHD.7.1.Atmos-FGT
Language                                 : English
Service kind                             : Complete Main
Default                                  : No
Forced                                   : No

Audio #6
ID                                       : 7
Format                                   : AC-3
Format/Info                              : Audio Coding 3
Commercial name                          : Dolby Digital
Codec ID                                 : A_AC3
Duration                                 : 1 h 51 min
Bit rate mode                            : Constant
Bit rate                                 : 640 kb/s
Channel(s)                               : 6 channels
Channel layout                           : L R C LFE Ls Rs
Sampling rate                            : 48.0 kHz
Frame rate                               : 31.250 FPS (1536 SPF)
Bit depth                                : 16 bits
Compression mode                         : Lossy
Stream size                              : 510 MiB (1%)
Title                                    : Shaft.2019.2160p.BluRay.REMUX.HEVC.DTS-HD.MA.TrueHD.7.1.Atmos-FGT
Language                                 : Spanish
Service kind                             : Complete Main
Default                                  : No
Forced                                   : No

Text #1
ID                                       : 8
Format                                   : UTF-8
Codec ID                                 : S_TEXT/UTF8
Codec ID/Info                            : UTF-8 Plain Text
Duration                                 : 1 h 45 min
Bit rate                                 : 79 b/s
Count of elements                        : 2020
Stream size                              : 61.5 KiB (0%)
Title                                    : English-SRT
Language                                 : English
Default                                  : Yes
Forced                                   : No

Text #2
ID                                       : 9
Format                                   : PGS
Muxing mode                              : zlib
Codec ID                                 : S_HDMV/PGS
Codec ID/Info                            : Picture based subtitle format used on BDs/HD-DVDs
Duration                                 : 1 h 46 min
Bit rate                                 : 49.1 kb/s
Count of elements                        : 4356
Stream size                              : 37.5 MiB (0%)
Title                                    : English-PGS
Language                                 : English
Default                                  : No
Forced                                   : No

Text #3
ID                                       : 10
Format                                   : PGS
Muxing mode                              : zlib
Codec ID                                 : S_HDMV/PGS
Codec ID/Info                            : Picture based subtitle format used on BDs/HD-DVDs
Duration                                 : 1 h 50 min
Bit rate                                 : 37.8 kb/s
Count of elements                        : 3910
Stream size                              : 29.9 MiB (0%)
Title                                    : French-PGS
Language                                 : French
Default                                  : No
Forced                                   : No

Text #4
ID                                       : 11
Format                                   : PGS
Muxing mode                              : zlib
Codec ID                                 : S_HDMV/PGS
Codec ID/Info                            : Picture based subtitle format used on BDs/HD-DVDs
Duration                                 : 1 h 50 min
Bit rate                                 : 42.9 kb/s
Count of elements                        : 3888
Stream size                              : 33.9 MiB (0%)
Title                                    : Spanish-PGS
Language                                 : Spanish
Default                                  : No
Forced                                   : No

Menu
00:00:00.000                             : en:Chapter 01
00:08:02.607                             : en:Chapter 02
00:17:38.557                             : en:Chapter 03
00:27:55.840                             : en:Chapter 04
00:35:34.465                             : en:Chapter 05
00:41:22.354                             : en:Chapter 06
00:49:58.912                             : en:Chapter 07
00:59:05.208                             : en:Chapter 08
01:08:15.841                             : en:Chapter 09
01:17:30.562                             : en:Chapter 10
01:23:12.195                             : en:Chapter 11
01:33:29.145                             : en:Chapter 12
01:43:13.645                             : en:Chapter 13
01:46:54.741                             : en:Chapter 14


悠悠MP4_MP4电影下载_夏福特 Shaft.2019.2160p.BluRay.REMUX.HEVC.DTS-HD.MA.TrueHD.7.1.Atmos-FGT 51.55GB悠悠MP4_MP4电影下载_夏福特 Shaft.2019.2160p.BluRay.REMUX.HEVC.DTS-HD.MA.TrueHD.7.1.Atmos-FGT 51.55GB悠悠MP4_MP4电影下载_夏福特 Shaft.2019.2160p.BluRay.REMUX.HEVC.DTS-HD.MA.TrueHD.7.1.Atmos-FGT 51.55GB


提示:如迅雷下载提示"任务出错"、"因版权无法下载",请尝试【迅雷5】
上传的附件:
最新回复 (0)
返回
本站所有资源均收集自互联网,没有提供影片资源存储, 也未参与录制、上传,若本站收录的资源无意侵犯了您的权益, 请联系邮箱:gogoimgs#gmail.com(#=@)