[2015] [欧美] [剧情] [BD-1080P] 残酷的夏天 Cruel.Summer.2016.1080p.BluRay.x264.DTS-FGT 7.25GB

uump4 8天前 100

帖子完整标题:残酷的夏天 Cruel.Summer.2016.1080p.BluRay.x264.DTS-FGT 7.25GB


悠悠MP4_MP4电影下载_残酷的夏天 Cruel.Summer.2016.1080p.BluRay.x264.DTS-FGT 7.25GB

◎译  名 残酷的夏天
◎片  名 Summer Scars
◎年  代 2015
◎产  地 英国
◎类  别 剧情 / 惊悚
◎上映日期 2016-08-27(英国)
◎IMDb评分  5.4/10 from 695 users
◎IMDb链接  http://www.imdb.com/title/tt3071192
◎豆瓣评分 0/10 from 0 users
◎豆瓣链接 https://movie.douban.com/subject/26591739/
◎片  长 78分钟
◎导  演 Craig Newman / Phillip Escott
◎编  剧 Phillip Escott / Craig Newman (story)
◎主  演 Danny Miller
       Reece Douglas


◎标  签 英国 | 蛋泥 | Horror | 美式恐怖 | 真人真事改编 | 犯罪 | 2015

◎简  介  

  一個風和日麗的夏日,六個不愛念書的中學生相約翹課,跑進森林裡的秘密基地玩耍,騎著偷來的機車肆意狂飆,意外撞上行經此處的彼得!不過彼得非但沒有生氣,反而邀請他們參與屬於大人們的娛樂,而等到彼此熟稔孩子們失去戒心後,露出真面目的彼得,打算讓這些孩子好好感受大人世界的殘酷!

Video
ID                                       : 1
Format                                   : AVC
Format/Info                              : Advanced Video Codec
Format profile                           : [email protected]
Format settings                          : CABAC / 4 Ref Frames
Format settings, CABAC                   : Yes
Format settings, Reference frames        : 4 frames
Codec ID                                 : V_MPEG4/ISO/AVC
Duration                                 : 1 h 20 min
Bit rate                                 : 11.5 Mb/s
Width                                    : 1 920 pixels
Height                                   : 804 pixels
Display aspect ratio                     : 2.40:1
Frame rate mode                          : Constant
Frame rate                               : 24.000 FPS
Color space                              : YUV
Chroma subsampling                       : 4:2:0
Bit depth                                : 8 bits
Scan type                                : Progressive
Bits/(Pixel*Frame)                       : 0.310
Stream size                              : 6.41 GiB (88%)
Title                                    : Cruel.Summer.2016.1080p.BluRay.x264.DTS-FGT
Writing library                          : x264 core 148 r2795M aaa9aa8
Encoding settings                        : cabac=1 / ref=4 / deblock=1:-2:-2 / analyse=0x3:0x113 / me=umh / subme=9 / psy=1 / psy_rd=1.00:0.15 / mixed_ref=1 / me_range=16 / chroma_me=1 / trellis=2 / 8x8dct=1 / cqm=0 / deadzone=21,11 / fast_pskip=1 / chroma_qp_offset=-3 / threads=24 / lookahead_threads=3 / sliced_threads=0 / nr=0 / decimate=1 / interlaced=0 / bluray_compat=0 / constrained_intra=0 / bframes=3 / b_pyramid=2 / b_adapt=1 / b_bias=0 / direct=3 / weightb=1 / open_gop=0 / weightp=2 / keyint=250 / keyint_min=25 / scenecut=40 / intra_refresh=0 / rc_lookahead=50 / rc=2pass / mbtree=1 / bitrate=11500 / ratetol=1.0 / qcomp=0.60 / qpmin=0 / qpmax=69 / qpstep=4 / cplxblur=20.0 / qblur=0.5 / vbv_maxrate=31250 / vbv_bufsize=31250 / nal_hrd=none / filler=0 / ip_ratio=1.40 / aq=1:1.00
Language                                 : English
Default                                  : Yes
Forced                                   : No

Audio
ID                                       : 2
Format                                   : DTS
Format/Info                              : Digital Theater Systems
Codec ID                                 : A_DTS
Duration                                 : 1 h 20 min
Bit rate mode                            : Constant
Bit rate                                 : 1 509 kb/s
Channel(s)                               : 6 channels
Channel layout                           : C L R Ls Rs LFE
Sampling rate                            : 48.0 kHz
Frame rate                               : 93.750 FPS (512 SPF)
Bit depth                                : 16 bits
Compression mode                         : Lossy
Stream size                              : 863 MiB (12%)
Title                                    : Cruel.Summer.2016.1080p.BluRay.x264.DTS-FGT
Language                                 : English
Default                                  : No
Forced                                   : No

Text
ID                                       : 3
Format                                   : UTF-8
Codec ID                                 : S_TEXT/UTF8
Codec ID/Info                            : UTF-8 Plain Text
Duration                                 : 1 h 17 min
Bit rate                                 : 47 b/s
Count of elements                        : 890
Stream size                              : 26.7 KiB (0%)
Language                                 : English
Default                                  : Yes
Forced                                   : No

Menu
00:00:00.000                             : en:Chapter 01
00:08:05.333                             : en:Chapter 02
00:14:59.166                             : en:Chapter 03
00:22:18.750                             : en:Chapter 04
00:28:59.250                             : en:Chapter 05
00:36:28.541                             : en:Chapter 06
00:42:15.125                             : en:Chapter 07
00:48:13.041                             : en:Chapter 08
00:54:22.250                             : en:Chapter 09
01:00:26.791                             : en:Chapter 10
01:06:35.916                             : en:Chapter 11
01:12:34.750                             : en:Chapter 12


悠悠MP4_MP4电影下载_残酷的夏天 Cruel.Summer.2016.1080p.BluRay.x264.DTS-FGT 7.25GB悠悠MP4_MP4电影下载_残酷的夏天 Cruel.Summer.2016.1080p.BluRay.x264.DTS-FGT 7.25GB悠悠MP4_MP4电影下载_残酷的夏天 Cruel.Summer.2016.1080p.BluRay.x264.DTS-FGT 7.25GB


提示:如迅雷下载提示"任务出错"、"因版权无法下载",请尝试【迅雷5】
上传的附件:
最新回复 (0)
返回
本站所有资源均收集自互联网,没有提供影片资源存储, 也未参与录制、上传,若本站收录的资源无意侵犯了您的权益, 请联系邮箱:gogoimgs#gmail.com(#=@)