[更早] [欧美] [剧情] [WEB-1080P] 无人之子 Nobodys.Baby.2001.1080p.AMZN.WEBRip.DDP2.0.x264-NTb 7.84GB

uump4 7天前 27

帖子完整标题:无人之子 Nobodys.Baby.2001.1080p.AMZN.WEBRip.DDP2.0.x264-NTb 7.84GB


悠悠MP4_MP4电影下载_无人之子 Nobodys.Baby.2001.1080p.AMZN.WEBRip.DDP2.0.x264-NTb 7.84GB

◎译  名 无人之子
◎片  名 Nobody's Baby
◎年  代 2001
◎产  地 美国
◎类  别 剧情 / 喜剧
◎语  言 英语
◎上映日期 2002-08-20
◎IMDb评分  6.4/10 from 1431 users
◎IMDb链接  http://www.imdb.com/title/tt0215516
◎豆瓣评分 0/10 from 0 users
◎豆瓣链接 https://movie.douban.com/subject/1758661/
◎片  长 110 分钟
◎导  演 David Seltzer
◎编  剧 David Seltzer
◎主  演 斯基特·乌尔里奇 Skeet Ulrich
       加里·奥德曼 Gary Oldman
       拉妲·米契尔 Radha Mitchell


◎标  签 GaryOldman | 美国 | 美国电影 | 剧情 | Gary_Oldman | 喜剧 | US | 2002

◎简  介  

  暂无相关剧情介绍

Video
ID                                       : 1
Format                                   : AVC
Format/Info                              : Advanced Video Codec
Format profile                           : [email protected]
Format settings                          : CABAC / 4 Ref Frames
Format settings, CABAC                   : Yes
Format settings, Reference frames        : 4 frames
Codec ID                                 : V_MPEG4/ISO/AVC
Duration                                 : 1 h 52 min
Bit rate mode                            : Constant
Bit rate                                 : 10 000 kb/s
Width                                    : 1 920 pixels
Height                                   : 1 080 pixels
Display aspect ratio                     : 16:9
Frame rate mode                          : Constant
Frame rate                               : 24.000 FPS
Color space                              : YUV
Chroma subsampling                       : 4:2:0
Bit depth                                : 8 bits
Scan type                                : Progressive
Bits/(Pixel*Frame)                       : 0.201
Stream size                              : 7.67 GiB (98%)
Default                                  : Yes
Forced                                   : No
Color range                              : Limited
Color primaries                          : BT.709
Transfer characteristics                 : BT.709
Matrix coefficients                      : BT.709

Audio
ID                                       : 2
Format                                   : E-AC-3
Format/Info                              : Enhanced AC-3
Commercial name                          : Dolby Digital Plus
Codec ID                                 : A_EAC3
Duration                                 : 1 h 52 min
Bit rate mode                            : Constant
Bit rate                                 : 224 kb/s
Channel(s)                               : 2 channels
Channel layout                           : L R
Sampling rate                            : 48.0 kHz
Frame rate                               : 31.250 FPS (1536 SPF)
Compression mode                         : Lossy
Stream size                              : 181 MiB (2%)
Language                                 : English
Service kind                             : Complete Main
Default                                  : Yes
Forced                                   : No

Text
ID                                       : 3
Format                                   : UTF-8
Codec ID                                 : S_TEXT/UTF8
Codec ID/Info                            : UTF-8 Plain Text
Duration                                 : 1 h 48 min
Bit rate                                 : 64 b/s
Count of elements                        : 1696
Stream size                              : 51.0 KiB (0%)
Title                                    : SDH
Language                                 : English
Default                                  : No
Forced                                   : No


悠悠MP4_MP4电影下载_无人之子 Nobodys.Baby.2001.1080p.AMZN.WEBRip.DDP2.0.x264-NTb 7.84GB悠悠MP4_MP4电影下载_无人之子 Nobodys.Baby.2001.1080p.AMZN.WEBRip.DDP2.0.x264-NTb 7.84GB悠悠MP4_MP4电影下载_无人之子 Nobodys.Baby.2001.1080p.AMZN.WEBRip.DDP2.0.x264-NTb 7.84GB


提示:如迅雷下载提示"任务出错"、"因版权无法下载",请尝试【迅雷5】
上传的附件:
最新回复 (0)
返回
本站所有资源均收集自互联网,没有提供影片资源存储, 也未参与录制、上传,若本站收录的资源无意侵犯了您的权益, 请联系邮箱:gogoimgs#gmail.com(#=@)