[更早] [其他] [喜剧] [BD-1080P] 義蓋雲天 A.Hearty.Response.1986.1080p.BluRay.x264-aBD 6.55GB

uump4 9天前 95

帖子完整标题:義蓋雲天 A.Hearty.Response.1986.1080p.BluRay.x264-aBD 6.55GB


悠悠MP4_MP4电影下载_義蓋雲天 A.Hearty.Response.1986.1080p.BluRay.x264-aBD 6.55GB

◎译  名 义盖云天 / A Hearty Response
◎片  名 義蓋雲天
◎年  代 1986
◎产  地 中国香港
◎类  别 喜剧 / 爱情
◎语  言 粤语
◎上映日期 1986-10-30
◎IMDb评分  6.0/10 from 156 users
◎IMDb链接  http://www.imdb.com/title/tt0092260
◎豆瓣评分 6.8/10 from 3513 users
◎豆瓣链接 https://movie.douban.com/subject/1297141/
◎片  长 89 分钟
◎导  演 罗文
◎编  剧 黎文卓
◎主  演 周润发
       王祖贤
       吕方
       潘丽贤


◎标  签 王祖贤 | 周润发 | 香港 | 香港电影 | 爱情 | 1986 | 动作 | 吕方

◎简  介  

  港生(王祖贤 饰)从大陆偷渡至香港,一路颠簸还被蛇头欺辱,搏斗过程中将蛇头打伤才逃脱出来,但外面的世界同样令她感到陌生惶恐。她起初预备投靠自己的姨妈,却遭到姨妈拒绝且冷言讽刺港生,而姨父则垂涎其美色,港生只得离开姨妈家再次流落街头。督查何定邦(周润发 饰)和祥仁(吕方 饰)追捕白粉雄,白粉雄驾车冲出街道撞倒了路边的港生。港生在医院苏醒以后害怕身份败露被送回大陆,灵机一动谎称自己脑部受伤得了失忆症,还“认准”何定邦就是其丈夫伟雄。心性善良的定邦只得将港生接回家中暂住,二人关系日渐改变,但港生“偷渡客”的身份却像两人关系中的定时炸弹时时刻刻存在着……

Video
ID                                       : 1
Format                                   : AVC
Format/Info                              : Advanced Video Codec
Format profile                           : [email protected]
Format settings                          : CABAC / 4 Ref Frames
Format settings, CABAC                   : Yes
Format settings, ReFrames                : 4 frames
Muxing mode                              : Header stripping
Codec ID                                 : V_MPEG4/ISO/AVC
Duration                                 : 1 h 29 min
Bit rate                                 : 9 815 kb/s
Width                                    : 1 920 pixels
Height                                   : 1 040 pixels
Display aspect ratio                     : 1.85:1
Frame rate mode                          : Constant
Frame rate                               : 24.000 FPS
Color space                              : YUV
Chroma subsampling                       : 4:2:0
Bit depth                                : 8 bits
Scan type                                : Progressive
Bits/(Pixel*Frame)                       : 0.205
Stream size                              : 6.02 GiB (92%)
Writing library                          : x264 core 114 r1924 08d04a4
Encoding settings                        : cabac=1 / ref=4 / deblock=1:-1:-1 / analyse=0x3:0x113 / me=umh / subme=7 / psy=1 / psy_rd=1.00:0.00 / mixed_ref=1 / me_range=16 / chroma_me=1 / trellis=1 / 8x8dct=1 / cqm=0 / deadzone=21,11 / fast_pskip=1 / chroma_qp_offset=-2 / threads=12 / sliced_threads=0 / nr=0 / decimate=1 / interlaced=0 / constrained_intra=0 / bframes=3 / b_pyramid=2 / b_adapt=2 / b_bias=0 / direct=3 / weightb=1 / open_gop=0 / weightp=2 / keyint=250 / keyint_min=24 / scenecut=40 / intra_refresh=0 / rc_lookahead=40 / rc=2pass / mbtree=1 / bitrate=9815 / ratetol=1.0 / qcomp=0.60 / qpmin=0 / qpmax=69 / qpstep=4 / cplxblur=20.0 / qblur=0.5 / vbv_maxrate=50000 / vbv_bufsize=50000 / nal_hrd=none / ip_ratio=1.40 / aq=1:1.00
Language                                 : Chinese
Default                                  : Yes
Forced                                   : Yes

Audio
ID                                       : 2
Format                                   : AC-3
Format/Info                              : Audio Coding 3
Muxing mode                              : Header stripping
Codec ID                                 : A_AC3
Duration                                 : 1 h 29 min
Bit rate mode                            : Constant
Bit rate                                 : 640 kb/s
Channel(s)                               : 6 channels
Channel positions                        : Front: L C R, Side: L R, LFE
Sampling rate                            : 48.0 kHz
Frame rate                               : 31.250 FPS (1536 SPF)
Bit depth                                : 16 bits
Compression mode                         : Lossy
Stream size                              : 411 MiB (6%)
Language                                 : Chinese
Service kind                             : Complete Main
Default                                  : Yes
Forced                                   : Yes

Text
ID                                       : 3
Format                                   : UTF-8
Codec ID                                 : S_TEXT/UTF8
Codec ID/Info                            : UTF-8 Plain Text
Language                                 : English
Default                                  : Yes
Forced                                   : No


悠悠MP4_MP4电影下载_義蓋雲天 A.Hearty.Response.1986.1080p.BluRay.x264-aBD 6.55GB悠悠MP4_MP4电影下载_義蓋雲天 A.Hearty.Response.1986.1080p.BluRay.x264-aBD 6.55GB悠悠MP4_MP4电影下载_義蓋雲天 A.Hearty.Response.1986.1080p.BluRay.x264-aBD 6.55GB


提示:如迅雷下载提示"任务出错"、"因版权无法下载",请尝试【迅雷5】
上传的附件:
最新回复 (0)
返回
本站所有资源均收集自互联网,没有提供影片资源存储, 也未参与录制、上传,若本站收录的资源无意侵犯了您的权益, 请联系邮箱:gogoimgs#gmail.com(#=@)