[2017] [其他] [动作] [BD-1080P] 破·局 Peace.Breaker.2017.CHINESE.1080p.BluRay.x264-WiKi 10.48GB

uump4 13天前 261

帖子完整标题:破·局 Peace.Breaker.2017.CHINESE.1080p.BluRay.x264-WiKi 10.48GB


悠悠MP4_MP4电影下载_破·局 Peace.Breaker.2017.CHINESE.1080p.BluRay.x264-WiKi 10.48GB

◎译  名 Peace Breaker / 肇事者 / 走到尽头
◎片  名 破·局
◎年  代 2017
◎产  地 中国大陆
◎类  别 动作 / 犯罪
◎语  言 汉语普通话
◎上映日期 2017-08-17(中国大陆)
◎IMDb评分  6.1/10 from 344 users
◎IMDb链接  http://www.imdb.com/title/tt7180392
◎豆瓣评分 6.2/10 from 48108 users
◎豆瓣链接 https://movie.douban.com/subject/26760160/
◎片  长 112分钟
◎导  演 连奕琦 Yi-chi Lien
◎编  剧 林宇辰 / 于尚民
◎主  演 郭富城 Aaron Kwok
       王千源 Qianyuan Wang
       刘涛 Tao Liu
       余皑磊 Ailei Yu
       冯嘉怡 Jiayi Feng
       郑凯 Kai Zheng


◎标  签 犯罪 | 悬疑 | 动作 | 黑色幽默 | 2017 | 剧情 | 翻拍 | 喜剧

◎简  介  

  这是高见翔警官生命中最艰难的一天:母亲去世,工作遇阻,还在奔丧时意外撞死了一个人。他本以为可以瞒天过海,没想到一个惊天阴谋在前方等待,令他身陷迷局......

Video
ID                                       : 1
Format                                   : AVC
Format/Info                              : Advanced Video Codec
Format profile                           : [email protected]
Format settings                          : CABAC / 5 Ref Frames
Format settings, CABAC                   : Yes
Format settings, Reference frames        : 5 frames
Codec ID                                 : V_MPEG4/ISO/AVC
Duration                                 : 1 h 52 min
Bit rate                                 : 12.7 Mb/s
Width                                    : 1 920 pixels
Height                                   : 804 pixels
Display aspect ratio                     : 2.40:1
Frame rate mode                          : Constant
Frame rate                               : 24.000 FPS
Color space                              : YUV
Chroma subsampling                       : 4:2:0
Bit depth                                : 8 bits
Scan type                                : Progressive
Bits/(Pixel*Frame)                       : 0.343
Stream size                              : 9.97 GiB (95%)
Writing library                          : x264 core 142 r2431+42 c69a006 tMod [[email protected] X86_64]
Encoding settings                        : cabac=1 / ref=5 / deblock=1:-3:-3 / analyse=0x3:0x133 / me=umh / subme=11 / psy=1 / fade_compensate=0.00 / psy_rd=1.00:0.05 / mixed_ref=1 / me_range=64 / chroma_me=1 / trellis=2 / 8x8dct=1 / cqm=0 / deadzone=21,11 / fast_pskip=0 / chroma_qp_offset=-1 / threads=12 / lookahead_threads=3 / sliced_threads=0 / nr=0 / decimate=0 / interlaced=0 / bluray_compat=0 / constrained_intra=0 / fgo=0 / bframes=10 / b_pyramid=2 / b_adapt=2 / b_bias=0 / direct=3 / weightb=1 / open_gop=0 / weightp=2 / keyint=250 / keyint_min=24 / scenecut=40 / intra_refresh=0 / rc_lookahead=80 / rc=crf / mbtree=0 / crf=17.0000 / qcomp=0.70 / qpmin=0:0:0 / qpmax=69:69:69 / qpstep=4 / vbv_maxrate=50000 / vbv_bufsize=50000 / crf_max=0.0 / nal_hrd=none / filler=0 / ip_ratio=1.40 / pb_ratio=1.30 / aq=1:0.80 / aq-sensitivity=10.00 / aq-factor=1.00:1.00:1.00 / aq2=0 / aq3=0
Language                                 : Chinese
Default                                  : Yes
Forced                                   : No
Color range                              : Limited
Matrix coefficients                      : BT.709

Audio
ID                                       : 2
Format                                   : AC-3
Format/Info                              : Audio Coding 3
Commercial name                          : Dolby Digital
Codec ID                                 : A_AC3
Duration                                 : 1 h 52 min
Bit rate mode                            : Constant
Bit rate                                 : 640 kb/s
Channel(s)                               : 6 channels
Channel layout                           : L R C LFE Ls Rs
Sampling rate                            : 48.0 kHz
Frame rate                               : 31.250 FPS (1536 SPF)
Bit depth                                : 16 bits
Compression mode                         : Lossy
Stream size                              : 513 MiB (5%)
Language                                 : Chinese
Service kind                             : Complete Main
Default                                  : Yes
Forced                                   : No

Text #1
ID                                       : 3
Format                                   : UTF-8
Codec ID                                 : S_TEXT/UTF8
Codec ID/Info                            : UTF-8 Plain Text
Duration                                 : 1 h 43 min
Bit rate                                 : 36 b/s
Count of elements                        : 1212
Stream size                              : 27.3 KiB (0%)
Language                                 : English
Default                                  : Yes
Forced                                   : No

Text #2
ID                                       : 4
Format                                   : UTF-8
Codec ID                                 : S_TEXT/UTF8
Codec ID/Info                            : UTF-8 Plain Text
Duration                                 : 1 h 43 min
Bit rate                                 : 28 b/s
Count of elements                        : 1212
Stream size                              : 21.9 KiB (0%)
Title                                    : CHS
Language                                 : Chinese
Default                                  : No
Forced                                   : No

Text #3
ID                                       : 5
Format                                   : UTF-8
Codec ID                                 : S_TEXT/UTF8
Codec ID/Info                            : UTF-8 Plain Text
Duration                                 : 1 h 43 min
Bit rate                                 : 28 b/s
Count of elements                        : 1212
Stream size                              : 21.9 KiB (0%)
Title                                    : CHT
Language                                 : Chinese
Default                                  : No
Forced                                   : No

Menu
00:00:00.000                             : en:00:00:00.000
00:07:15.375                             : en:00:07:15.375
00:12:23.667                             : en:00:12:23.667
00:16:15.875                             : en:00:16:15.875
00:22:04.292                             : en:00:22:04.292
00:29:07.000                             : en:00:29:07.000
00:35:41.167                             : en:00:35:41.167
00:40:49.500                             : en:00:40:49.500
00:47:08.542                             : en:00:47:08.542
00:51:09.792                             : en:00:51:09.792
00:56:07.125                             : en:00:56:07.125
01:02:03.958                             : en:01:02:03.958
01:06:05.167                             : en:01:06:05.167
01:14:46.958                             : en:01:14:46.958
01:17:27.000                             : en:01:17:27.000
01:23:00.417                             : en:01:23:00.417
01:26:34.583                             : en:01:26:34.583
01:31:26.583                             : en:01:31:26.583
01:38:42.375                             : en:01:38:42.375
01:45:17.333                             : en:01:45:17.333


悠悠MP4_MP4电影下载_破·局 Peace.Breaker.2017.CHINESE.1080p.BluRay.x264-WiKi 10.48GB悠悠MP4_MP4电影下载_破·局 Peace.Breaker.2017.CHINESE.1080p.BluRay.x264-WiKi 10.48GB悠悠MP4_MP4电影下载_破·局 Peace.Breaker.2017.CHINESE.1080p.BluRay.x264-WiKi 10.48GB


提示:如迅雷下载提示"任务出错"、"因版权无法下载",请尝试【迅雷5】
上传的附件:
最新回复 (0)
返回
本站所有资源均收集自互联网,没有提供影片资源存储, 也未参与录制、上传,若本站收录的资源无意侵犯了您的权益, 请联系邮箱:gogoimgs#gmail.com(#=@)