[更早] [欧美] [科幻] [WEB-1080P] 傅满洲的面具/傅满州的面具 The.Mask.of.Fu.Manchu.1932.1080p.WEBRip.x264-RARBG 1.30GB

uump4 8天前 244

帖子完整标题:傅满洲的面具/傅满州的面具 The.Mask.of.Fu.Manchu.1932.1080p.WEBRip.x264-RARBG 1.30GB


悠悠MP4_MP4电影下载_傅满洲的面具/傅满州的面具 The.Mask.of.Fu.Manchu.1932.1080p.WEBRip.x264-RARBG 1.30GB

◎译  名 傅满洲的面具 / 傅满州的面具
◎片  名 The Mask of Fu Manchu
◎年  代 1932
◎产  地 美国
◎类  别 科幻 / 恐怖 / 冒险
◎语  言 英语
◎上映日期 1932-11-05
◎IMDb评分  6.4/10 from 2820 users
◎IMDb链接  http://www.imdb.com/title/tt0023194
◎豆瓣评分 5.3/10 from 363 users
◎豆瓣链接 https://movie.douban.com/subject/1863264/
◎片  长 68 分钟
◎导  演 Charles Brabin
◎编  剧 萨克斯·儒默 Sax Rohmer / Irene Kuhn
◎主  演 波利斯·卡洛夫 Boris Karloff
       刘易斯·斯通 Lewis Stone
       卡伦·莫利 Karen Morley


◎标  签 傅满洲 | 美国 | 1930s | 黑白 | cult | 科幻 | 美国电影 | 1932

◎简  介  

  话说有几个英国人要找到成吉思汗之坟墓。他们要争取时间比傅满州和他的女儿到达坟墓。因为邪恶的傅满州和他的女儿也正在寻找成吉思汗的坟墓。他们不可以让傅满州得到成吉思汗的剑,武装,和一个面具。其中最重要得是不可以让他得到面具,因为听说得到面具的人可以统治世界。

Video
ID                                       : 1
Format                                   : AVC
Format/Info                              : Advanced Video Codec
Format profile                           : [email protected]
Format settings                          : CABAC / 4 Ref Frames
Format settings, CABAC                   : Yes
Format settings, Reference frames        : 4 frames
Codec ID                                 : avc1
Codec ID/Info                            : Advanced Video Coding
Duration                                 : 1 h 8 min
Bit rate                                 : 2 500 kb/s
Width                                    : 1 432 pixels
Height                                   : 1 080 pixels
Display aspect ratio                     : 4:3
Frame rate mode                          : Constant
Frame rate                               : 23.976 (23976/1000) FPS
Color space                              : YUV
Chroma subsampling                       : 4:2:0
Bit depth                                : 8 bits
Scan type                                : Progressive
Bits/(Pixel*Frame)                       : 0.067
Stream size                              : 1.19 GiB (92%)
Writing library                          : x264 core 152 r2851M ba24899
Encoding settings                        : cabac=1 / ref=4 / deblock=1:-1:-1 / analyse=0x3:0x113 / me=umh / subme=9 / psy=1 / psy_rd=1.00:0.15 / mixed_ref=1 / me_range=24 / chroma_me=1 / trellis=2 / 8x8dct=1 / cqm=0 / deadzone=21,11 / fast_pskip=1 / chroma_qp_offset=-3 / threads=16 / lookahead_threads=4 / sliced_threads=0 / nr=0 / decimate=1 / interlaced=0 / bluray_compat=0 / constrained_intra=0 / bframes=3 / b_pyramid=2 / b_adapt=2 / b_bias=0 / direct=3 / weightb=1 / open_gop=0 / weightp=2 / keyint=250 / keyint_min=25 / scenecut=40 / intra_refresh=0 / rc_lookahead=50 / rc=2pass / mbtree=1 / bitrate=2500 / ratetol=1.0 / qcomp=0.60 / qpmin=0 / qpmax=69 / qpstep=4 / cplxblur=20.0 / qblur=0.5 / vbv_maxrate=31250 / vbv_bufsize=31250 / nal_hrd=none / filler=0 / ip_ratio=1.40 / aq=3:1.00
Encoded date                             : UTC 2019-10-08 17:58:51
Tagged date                              : UTC 2019-10-08 17:58:51
Codec configuration box                  : avcC

Audio
ID                                       : 2
Format                                   : AAC LC
Format/Info                              : Advanced Audio Codec Low Complexity
Codec ID                                 : mp4a-40-2
Duration                                 : 1 h 8 min
Duration_LastFrame                       : -11 ms
Bit rate mode                            : Constant
Bit rate                                 : 224 kb/s
Channel(s)                               : 2 channels
Channel layout                           : L R
Sampling rate                            : 48.0 kHz
Frame rate                               : 46.875 FPS (1024 SPF)
Compression mode                         : Lossy
Stream size                              : 109 MiB (8%)
Language                                 : English
Default                                  : Yes
Alternate group                          : 1
Encoded date                             : UTC 2019-10-08 17:58:51
Tagged date                              : UTC 2019-10-08 17:58:51


悠悠MP4_MP4电影下载_傅满洲的面具/傅满州的面具 The.Mask.of.Fu.Manchu.1932.1080p.WEBRip.x264-RARBG 1.30GB悠悠MP4_MP4电影下载_傅满洲的面具/傅满州的面具 The.Mask.of.Fu.Manchu.1932.1080p.WEBRip.x264-RARBG 1.30GB悠悠MP4_MP4电影下载_傅满洲的面具/傅满州的面具 The.Mask.of.Fu.Manchu.1932.1080p.WEBRip.x264-RARBG 1.30GB


提示:如迅雷下载提示"任务出错"、"因版权无法下载",请尝试【迅雷5】
上传的附件:
最新回复 (0)
返回
本站所有资源均收集自互联网,没有提供影片资源存储, 也未参与录制、上传,若本站收录的资源无意侵犯了您的权益, 请联系邮箱:gogoimgs#gmail.com(#=@)