[更早] [其他] [惊悚] [BD-1080P] 无面人 Bruiser.2000.1080p.BluRay.x264.DTS-MaG 6.35GB

uump4 9天前 109

帖子完整标题:无面人 Bruiser.2000.1080p.BluRay.x264.DTS-MaG 6.35GB


悠悠MP4_MP4电影下载_无面人 Bruiser.2000.1080p.BluRay.x264.DTS-MaG 6.35GB

◎译  名 无面人
◎片  名 Bruiser
◎年  代 2000
◎产  地 法国 / 加拿大 / 美国
◎类  别 惊悚 / 恐怖
◎语  言 英语 / 西班牙语
◎上映日期 2000-02-13
◎IMDb评分  5.3/10 from 5306 users
◎IMDb链接  http://www.imdb.com/title/tt0212830
◎豆瓣评分 0/10 from 0 users
◎豆瓣链接 https://movie.douban.com/subject/1420045/
◎片  长 99 分钟
◎导  演 乔治·A·罗梅罗 George A. Romero
◎编  剧 乔治·A·罗梅罗 George A. Romero
◎主  演 杰森·弗莱明 Jason Flemyng
       彼得·斯特曼 Peter Stormare
       莱斯利·霍普 Leslie Hope
       Nina Garbiras
       安德鲁·塔伯特 Andrew Tarbet
       汤姆· 阿特金斯 Tom Atkins
       乔纳森·希金斯 Jonathan Higgins
       杰夫·莫纳汉 Jeff Monahan
       Marie V. Cruz
       Beatriz Pizano
       Tamsin Kelsey
       Kelly King
       Susanne Sutchy
       Balázs Koós
       Jean Daigle


◎标  签 恐怖 | 加拿大 | 乔治·A·罗梅罗 | 西方恐怖 | 彼得·斯特曼 | 四年前看过的电影 | GeorgeA.Romero | George.A.Romero

◎简  介  

  The young executive of a publicity agency Henry Creedlow is a man that has repressed morbid thoughts and is walked over by most of his acquaintances: his wife is cheating on him with his boss and stealing his investments with help from his best friend; his housemaid is frequently stealing from his house and insulting him in Spanish; even his annoying poodle does not respect him. While in his daily morning routine listening to a talk show on the radio, he hears a man committing suicide live because he had been felt miserable and disrespected for a long time, and Henry feels impressed with the tragic story. The next morning, he wakes up to find his face covered by a white mask, changing his personality and letting him seek revenge against those who have humiliated him.

Video
ID                                       : 1
Format                                   : AVC
Format/Info                              : Advanced Video Codec
Format profile                           : [email protected]
Format settings                          : CABAC / 4 Ref Frames
Format settings, CABAC                   : Yes
Format settings, Reference frames        : 4 frames
Codec ID                                 : V_MPEG4/ISO/AVC
Duration                                 : 1 h 35 min
Bit rate                                 : 8 734 kb/s
Width                                    : 1 920 pixels
Height                                   : 1 080 pixels
Display aspect ratio                     : 16:9
Frame rate mode                          : Constant
Frame rate                               : 25.000 FPS
Color space                              : YUV
Chroma subsampling                       : 4:2:0
Bit depth                                : 8 bits
Scan type                                : Progressive
Bits/(Pixel*Frame)                       : 0.168
Stream size                              : 5.83 GiB (92%)
Writing library                          : x264 core 157 r2935 545de2f
Encoding settings                        : cabac=1 / ref=4 / deblock=1:-3:-3 / analyse=0x3:0x133 / me=umh / subme=9 / psy=1 / psy_rd=1.00:0.00 / mixed_ref=1 / me_range=24 / chroma_me=1 / trellis=2 / 8x8dct=1 / cqm=0 / deadzone=21,11 / fast_pskip=0 / chroma_qp_offset=-2 / threads=6 / lookahead_threads=1 / sliced_threads=0 / nr=0 / decimate=1 / interlaced=0 / bluray_compat=0 / constrained_intra=0 / bframes=6 / b_pyramid=2 / b_adapt=2 / b_bias=0 / direct=3 / weightb=1 / open_gop=0 / weightp=2 / keyint=250 / keyint_min=25 / scenecut=40 / intra_refresh=0 / rc_lookahead=60 / rc=crf / mbtree=1 / crf=14.0 / qcomp=0.60 / qpmin=0 / qpmax=69 / qpstep=4 / vbv_maxrate=62500 / vbv_bufsize=78125 / crf_max=0.0 / nal_hrd=none / filler=0 / ip_ratio=1.40 / aq=1:1.00
Language                                 : English
Default                                  : Yes
Forced                                   : No
Color range                              : Limited
Color primaries                          : BT.709
Transfer characteristics                 : BT.709
Matrix coefficients                      : BT.709

Audio
ID                                       : 2
Format                                   : DTS
Format/Info                              : Digital Theater Systems
Codec ID                                 : A_DTS
Duration                                 : 1 h 35 min
Bit rate mode                            : Constant
Bit rate                                 : 768 kb/s
Channel(s)                               : 6 channels
Channel layout                           : C L R Ls Rs LFE
Sampling rate                            : 48.0 kHz
Frame rate                               : 93.750 FPS (512 SPF)
Bit depth                                : 16 bits
Compression mode                         : Lossy
Stream size                              : 525 MiB (8%)
Language                                 : English
Default                                  : Yes
Forced                                   : No

Text
ID                                       : 3
Format                                   : UTF-8
Codec ID                                 : S_TEXT/UTF8
Codec ID/Info                            : UTF-8 Plain Text
Duration                                 : 1 h 32 min
Bit rate                                 : 73 b/s
Count of elements                        : 1535
Stream size                              : 50.0 KiB (0%)
Language                                 : English
Default                                  : Yes
Forced                                   : No

Menu
00:00:00.000                             : :Chapter 1
00:06:36.560                             : :Chapter 2
00:15:20.480                             : :Chapter 3
00:26:16.040                             : :Chapter 4
00:34:46.200                             : :Chapter 5
00:45:38.800                             : :Chapter 6
00:52:25.760                             : :Chapter 7
00:58:19.320                             : :Chapter 8
01:07:39.120                             : :Chapter 9
01:13:10.560                             : :Chapter 10
01:23:06.320                             : :Chapter 11
01:31:34.240                             : :Chapter 12


悠悠MP4_MP4电影下载_无面人 Bruiser.2000.1080p.BluRay.x264.DTS-MaG 6.35GB悠悠MP4_MP4电影下载_无面人 Bruiser.2000.1080p.BluRay.x264.DTS-MaG 6.35GB悠悠MP4_MP4电影下载_无面人 Bruiser.2000.1080p.BluRay.x264.DTS-MaG 6.35GB


提示:如迅雷下载提示"任务出错"、"因版权无法下载",请尝试【迅雷5】
上传的附件:
最新回复 (0)
返回
本站所有资源均收集自互联网,没有提供影片资源存储, 也未参与录制、上传,若本站收录的资源无意侵犯了您的权益, 请联系邮箱:gogoimgs#gmail.com(#=@)