[更早] [欧美] [剧情] [WEB-1080P] 吹牛顾客/选举追缉令1998 Bulworth.1998.1080p.WEBRip.x264-RARBG 2.06GB

uump4 8天前 92

帖子完整标题:吹牛顾客/选举追缉令1998 Bulworth.1998.1080p.WEBRip.x264-RARBG 2.06GB


悠悠MP4_MP4电影下载_吹牛顾客/选举追缉令1998 Bulworth.1998.1080p.WEBRip.x264-RARBG 2.06GB

◎译  名 吹牛顾客 / 选举追缉令1998
◎片  名 Bulworth
◎年  代 1998
◎产  地 美国
◎类  别 剧情 / 喜剧 / 爱情
◎语  言 英语
◎上映日期 1998-05-15
◎IMDb评分  6.8/10 from 23885 users
◎IMDb链接  http://www.imdb.com/title/tt0118798
◎豆瓣评分 7.2/10 from 222 users
◎豆瓣链接 https://movie.douban.com/subject/1299666/
◎片  长 108 分钟
◎导  演 Warren Beatty
◎编  剧 Warren Beatty / Jeremy Pikser
◎主  演 Warren Beatty
       Halle Berry
       Sean Astin
       Don Cheadle
       Christine Baranski


◎标  签 喜剧 | 政治 | 美国 | 讽刺 | 1998 | 美国电影 | Warren_Beatty | HalleBerry

◎简  介  

  加州的参议员Jay Bulworth在党内提名选举中落败,政治前途一片黯淡,尘世生活也不使他留恋。心如死灰的Bulworth买了一份一千万美元的保险,并安排杀手暗杀自己以留下大笔抚养金给家人。Bulworth之后在L.A.南部作了一次演讲,却鬼使神差地抛开了陈腐的讲稿自由发挥,他的尖锐言论震惊了听众和他的竞选阵营的同时,也获得了一位黑人美女的好感。Bulworth索性一不做二不休,在比华利山再次发表了他惊世骇俗的演讲,在这之后Bulworth仿佛上了瘾,他甚至将黑人说唱文化的技巧带入演讲里。这一段时间放松无顾忌的生活,尤其是与Nina的相识让Bulworth产生了继续生活的勇气和欲望。但当他打电话去取消安排的那场暗杀时,却被告知整个程序已被启动,他手忙脚乱地应付这个自己设好的局,幸好有Nina在旁相助。

◎获奖情况  

  第71届奥斯卡金像奖(1999)
  最佳原创剧本(提名) 沃伦·比蒂 / Jeremy Pikser

  第55届威尼斯电影节(1998)
  主竞赛单元 金狮奖 (提名) 沃伦·比蒂

Video
ID                                       : 1
Format                                   : AVC
Format/Info                              : Advanced Video Codec
Format profile                           : [email protected]
Format settings                          : CABAC / 4 Ref Frames
Format settings, CABAC                   : Yes
Format settings, Reference frames        : 4 frames
Codec ID                                 : avc1
Codec ID/Info                            : Advanced Video Coding
Duration                                 : 1 h 48 min
Bit rate                                 : 2 500 kb/s
Width                                    : 1 916 pixels
Height                                   : 1 080 pixels
Display aspect ratio                     : 16:9
Frame rate mode                          : Constant
Frame rate                               : 23.976 (23976/1000) FPS
Color space                              : YUV
Chroma subsampling                       : 4:2:0
Bit depth                                : 8 bits
Scan type                                : Progressive
Bits/(Pixel*Frame)                       : 0.050
Stream size                              : 1.89 GiB (92%)
Writing library                          : x264 core 152 r2851M ba24899
Encoding settings                        : cabac=1 / ref=4 / deblock=1:-1:-1 / analyse=0x3:0x113 / me=umh / subme=9 / psy=1 / psy_rd=1.00:0.15 / mixed_ref=1 / me_range=24 / chroma_me=1 / trellis=2 / 8x8dct=1 / cqm=0 / deadzone=21,11 / fast_pskip=1 / chroma_qp_offset=-3 / threads=16 / lookahead_threads=4 / sliced_threads=0 / nr=0 / decimate=1 / interlaced=0 / bluray_compat=0 / constrained_intra=0 / bframes=3 / b_pyramid=2 / b_adapt=2 / b_bias=0 / direct=3 / weightb=1 / open_gop=0 / weightp=2 / keyint=250 / keyint_min=25 / scenecut=40 / intra_refresh=0 / rc_lookahead=50 / rc=2pass / mbtree=1 / bitrate=2500 / ratetol=1.0 / qcomp=0.60 / qpmin=0 / qpmax=69 / qpstep=4 / cplxblur=20.0 / qblur=0.5 / vbv_maxrate=31250 / vbv_bufsize=31250 / nal_hrd=none / filler=0 / ip_ratio=1.40 / aq=3:1.00
Encoded date                             : UTC 2019-10-09 00:39:28
Tagged date                              : UTC 2019-10-09 00:39:28
Codec configuration box                  : avcC

Audio
ID                                       : 2
Format                                   : AAC LC
Format/Info                              : Advanced Audio Codec Low Complexity
Codec ID                                 : mp4a-40-2
Duration                                 : 1 h 48 min
Bit rate mode                            : Constant
Bit rate                                 : 224 kb/s
Channel(s)                               : 6 channels
Channel layout                           : C L R Ls Rs LFE
Sampling rate                            : 48.0 kHz
Frame rate                               : 46.875 FPS (1024 SPF)
Compression mode                         : Lossy
Stream size                              : 173 MiB (8%)
Language                                 : English
Default                                  : Yes
Alternate group                          : 1
Encoded date                             : UTC 2019-10-09 00:39:28
Tagged date                              : UTC 2019-10-09 00:39:28


悠悠MP4_MP4电影下载_吹牛顾客/选举追缉令1998 Bulworth.1998.1080p.WEBRip.x264-RARBG 2.06GB悠悠MP4_MP4电影下载_吹牛顾客/选举追缉令1998 Bulworth.1998.1080p.WEBRip.x264-RARBG 2.06GB悠悠MP4_MP4电影下载_吹牛顾客/选举追缉令1998 Bulworth.1998.1080p.WEBRip.x264-RARBG 2.06GB


提示:如迅雷下载提示"任务出错"、"因版权无法下载",请尝试【迅雷5】
上传的附件:
最新回复 (0)
返回
本站所有资源均收集自互联网,没有提供影片资源存储, 也未参与录制、上传,若本站收录的资源无意侵犯了您的权益, 请联系邮箱:gogoimgs#gmail.com(#=@)